Pon no Michi | EPISODE 2 - Four Players Gathered (ENGLISH SUB) [jLklFEZAXKQ].mp4


File Size252.4 MB (264,658,313 bytes)
DownloadClickNUpload | DailyUploads | DownloadGG | GoFile | KrakenFiles | MdiaLoad | MultiUp
  • BdUpload
  • DownAce
  • Fichier
  • FileCloud
  • Filerio
  • FilesCdn
  • IndiShare
  • Kbagi
  • Turbobit
  • UpToBox
  • Uppit
| Uppit
HashesCRC32: 71EB31DB, MD5: 400798842FF3FF8C8E025FFD36804E8A, SHA1: 6F1B2D347D721BAB95A2467187F8D98DD5E6CFFF, SHA256: D9129663DDF7C96B7E7A4BD48D444C2920DA5DEF621A452A58E1FB5DAA9B8EFB, ED2K: E81B76E6208DB1A047E05CFD5675FCB9
Screenshots
screenshotscreenshotscreenshotscreenshotscreenshot
Additional Info
General
Complete name                            : Pon no Michi | EPISODE 2 - Four Players Gathered (ENGLISH SUB) [jLklFEZAXKQ].mp4
Format                                   : MPEG-4
Format profile                           : Base Media
Codec ID                                 : isom (isom/iso2/avc1/mp41)
File size                                : 252 MiB
Duration                                 : 24 min 35 s
Overall bit rate                         : 1 435 kb/s
Frame rate                               : 23.976 FPS
Writing application                      : Lavf59.34.101

Video
ID                                       : 1
Format                                   : AVC
Format/Info                              : Advanced Video Codec
Format profile                           : High@L4
Format settings                          : CABAC / 3 Ref Frames
Format settings, CABAC                   : Yes
Format settings, Reference frames        : 3 frames
Codec ID                                 : avc1
Codec ID/Info                            : Advanced Video Coding
Duration                                 : 24 min 35 s
Bit rate                                 : 1 300 kb/s
Width                                    : 1 920 pixels
Height                                   : 1 080 pixels
Display aspect ratio                     : 16:9
Frame rate mode                          : Variable
Frame rate                               : 23.976 (24000/1001) FPS
Minimum frame rate                       : 23.974 FPS
Maximum frame rate                       : 23.981 FPS
Color space                              : YUV
Chroma subsampling                       : 4:2:0
Bit depth                                : 8 bits
Scan type                                : Progressive
Bits/(Pixel*Frame)                       : 0.026
Stream size                              : 229 MiB (91%)
Color range                              : Limited
Color primaries                          : BT.709
Transfer characteristics                 : BT.709
Matrix coefficients                      : BT.709
mdhd_Duration                            : 1475891
Codec configuration box                  : avcC

Audio
ID                                       : 2
Format                                   : AAC LC
Format/Info                              : Advanced Audio Codec Low Complexity
Codec ID                                 : mp4a-40-2
Duration                                 : 24 min 35 s
Bit rate mode                            : Constant
Bit rate                                 : 128 kb/s
Channel(s)                               : 2 channels
Channel layout                           : L R
Sampling rate                            : 44.1 kHz
Frame rate                               : 43.066 FPS (1024 SPF)
Compression mode                         : Lossy
Stream size                              : 22.5 MiB (9%)
Title                                    : ISO Media file produced by Google Inc.
Language                                 : English
Default                                  : Yes
Alternate group                          : 1

Other Files in this Torrent
Pon no Michi | EPISODE 2 - Four Players Gathered (ENGLISH SUB) [jLklFEZAXKQ].mp4
beta
Anime DDL+NZB mirror
Current Time: 13/07/2024 13:19



About/FAQs

Discord