Pon no Michi | EPISODE 3 - Let's Eat (ENGLISH SUB) [JFdb3lJYhs0].mp4


File Size237.6 MB (249,168,316 bytes)
DownloadClickNUpload | DailyUploads | DownloadGG | GoFile | KrakenFiles | MdiaLoad | MultiUp
  • BdUpload
  • DownAce
  • Fichier
  • FileCloud
  • Filerio
  • FilesCdn
  • IndiShare
  • Kbagi
  • Turbobit
  • UpToBox
  • Uppit
| Uppit
HashesCRC32: DA34C0BD, MD5: B203B173D39EF752CA3A322B714B45F0, SHA1: 2B4AA2E0632632E4243122BB7502979DC004CE9E, SHA256: EEDA5680D6D0FC57CC656DCFB326D958CE63E8199DE29A18A062B00B2A1F8D8A, ED2K: B2639E484311D8AE868CBB21762CE439
Screenshots
screenshotscreenshotscreenshotscreenshotscreenshot
Additional Info
General
Complete name                            : Pon no Michi | EPISODE 3 - Let's Eat (ENGLISH SUB) [JFdb3lJYhs0].mp4
Format                                   : MPEG-4
Format profile                           : Base Media
Codec ID                                 : isom (isom/iso2/avc1/mp41)
File size                                : 238 MiB
Duration                                 : 24 min 35 s
Overall bit rate                         : 1 351 kb/s
Frame rate                               : 23.976 FPS
Writing application                      : Lavf59.34.101

Video
ID                                       : 1
Format                                   : AVC
Format/Info                              : Advanced Video Codec
Format profile                           : High@L4
Format settings                          : CABAC / 3 Ref Frames
Format settings, CABAC                   : Yes
Format settings, Reference frames        : 3 frames
Codec ID                                 : avc1
Codec ID/Info                            : Advanced Video Coding
Duration                                 : 24 min 35 s
Bit rate                                 : 1 216 kb/s
Width                                    : 1 920 pixels
Height                                   : 1 080 pixels
Display aspect ratio                     : 16:9
Frame rate mode                          : Variable
Frame rate                               : 23.976 (24000/1001) FPS
Minimum frame rate                       : 23.974 FPS
Maximum frame rate                       : 23.981 FPS
Color space                              : YUV
Chroma subsampling                       : 4:2:0
Bit depth                                : 8 bits
Scan type                                : Progressive
Bits/(Pixel*Frame)                       : 0.024
Stream size                              : 214 MiB (90%)
Color range                              : Limited
Color primaries                          : BT.709
Transfer characteristics                 : BT.709
Matrix coefficients                      : BT.709
mdhd_Duration                            : 1475891
Codec configuration box                  : avcC

Audio
ID                                       : 2
Format                                   : AAC LC
Format/Info                              : Advanced Audio Codec Low Complexity
Codec ID                                 : mp4a-40-2
Duration                                 : 24 min 35 s
Bit rate mode                            : Constant
Bit rate                                 : 128 kb/s
Channel(s)                               : 2 channels
Channel layout                           : L R
Sampling rate                            : 44.1 kHz
Frame rate                               : 43.066 FPS (1024 SPF)
Compression mode                         : Lossy
Stream size                              : 22.5 MiB (9%)
Title                                    : ISO Media file produced by Google Inc.
Language                                 : English
Default                                  : Yes
Alternate group                          : 1

Other Files in this Torrent
Pon no Michi | EPISODE 3 - Let's Eat (ENGLISH SUB) [JFdb3lJYhs0].mp4
beta
Anime DDL+NZB mirror
Current Time: 18/06/2024 15:07



About/FAQs

Discord