Pokémon Indigo League - Vol. 4/S1E48 - Bulbasaur's Mysterious Garden [H264, MP4A AAC].mp4


File Size284.9 MB (298,688,881 bytes)
DownloadClickNUpload | Jheberg | MultiUp
  • BdUpload
  • DownAce
  • Fichier
  • FileCloud
  • Filerio
  • FilesCdn
  • IndiShare
  • Kbagi
  • Turbobit
  • UpToBox
  • Uppit
| Sendspace | SolidFiles | ZippyShare
HashesCRC32: F0C283BC, MD5: C1C9B11FD1503B1E31C74D0AC48E873C, SHA1: 10F8D2A4E921D940FEBB0A16BD9170F9B87ADA65, SHA256: 26FCD5DC650A2C99E61EF9117287EEC87B7CDF6F4A5FB22F9BBF67310656325A, ED2K: 9E50827F921A60FA3A6877AE8C6D8113
Screenshots
screenshotscreenshotscreenshotscreenshotscreenshot
Additional Info
General
Complete name                            : S1E48 - Bulbasaur's Mysterious Garden [H264, MP4A AAC].mp4
Format                                   : MPEG-4
Format profile                           : Base Media
Codec ID                                 : isom (isom/iso2/avc1/mp41)
File size                                : 285 MiB
Duration                                 : 23 min 0 s
Overall bit rate mode                    : Variable
Overall bit rate                         : 1 731 kb/s
Writing application                      : Lavf54.63.105

Video
ID                                       : 1
Format                                   : AVC
Format/Info                              : Advanced Video Codec
Format profile                           : High@L3
Format settings                          : CABAC / 4 Ref Frames
Format settings, CABAC                   : Yes
Format settings, ReFrames                : 4 frames
Codec ID                                 : avc1
Codec ID/Info                            : Advanced Video Coding
Duration                                 : 23 min 0 s
Bit rate                                 : 1 600 kb/s
Width                                    : 640 pixels
Height                                   : 480 pixels
Display aspect ratio                     : 4:3
Frame rate mode                          : Constant
Frame rate                               : 29.970 (29970/1000) FPS
Color space                              : YUV
Chroma subsampling                       : 4:2:0
Bit depth                                : 8 bits
Scan type                                : Progressive
Bits/(Pixel*Frame)                       : 0.174
Stream size                              : 262 MiB (92%)
Writing library                          : x264 core 130
Encoding settings                        : cabac=1 / ref=4 / deblock=1:0:0 / analyse=0x3:0x113 / me=umh / subme=8 / psy=1 / psy_rd=1.00:0.00 / mixed_ref=1 / me_range=16 / chroma_me=1 / trellis=1 / 8x8dct=1 / cqm=0 / deadzone=21,11 / fast_pskip=1 / chroma_qp_offset=-2 / threads=60 / lookahead_threads=3 / sliced_threads=0 / nr=0 / decimate=1 / interlaced=0 / bluray_compat=0 / constrained_intra=0 / bframes=16 / b_pyramid=2 / b_adapt=1 / b_bias=0 / direct=1 / weightb=1 / open_gop=0 / weightp=2 / keyint=149 / keyint_min=29 / scenecut=40 / intra_refresh=0 / rc_lookahead=40 / rc=2pass / mbtree=1 / bitrate=1600 / ratetol=1.0 / qcomp=0.80 / qpmin=10 / qpmax=51 / qpstep=4 / cplxblur=20.0 / qblur=0.5 / vbv_maxrate=2400 / vbv_bufsize=1600 / nal_hrd=none / ip_ratio=1.41 / aq=1:1.00
Language                                 : English
Codec configuration box                  : avcC

Audio
ID                                       : 2
Format                                   : AAC LC
Format/Info                              : Advanced Audio Codec Low Complexity
Codec ID                                 : mp4a-40-2
Duration                                 : 23 min 0 s
Bit rate mode                            : Variable
Bit rate                                 : 128 kb/s
Maximum bit rate                         : 2 400 kb/s
Channel(s)                               : 2 channels
Channel layout                           : L R
Sampling rate                            : 48.0 kHz
Frame rate                               : 46.875 FPS (1024 SPF)
Compression mode                         : Lossy
Stream size                              : 21.1 MiB (7%)
Language                                 : English
Default                                  : Yes
Alternate group                          : 1

Other Files in this Torrent
Pokémon Indigo League - Vol. 4/S1E48 - Bulbasaur's Mysterious Garden [H264, MP4A AAC].mp4
beta
Anime DDL+NZB mirror
Current Time: 23/06/2024 18:54



About/FAQs

Discord