Pokemon Concierge S01E04 Welcome to the Pokemon Resort [1080p AV1][Netflix WEB-DL].mkv


File Size208.5 MB (218,599,114 bytes)
DownloadClickNUpload | DailyUploads | GoFile | KrakenFiles | MdiaLoad | MultiUp
  • BdUpload
  • DownAce
  • Fichier
  • FileCloud
  • Filerio
  • FilesCdn
  • IndiShare
  • Kbagi
  • Turbobit
  • UpToBox
  • Uppit
| Uppit
HashesCRC32: 0BFECC95, MD5: 24B3BF82E9C55631E0AE351CB0748ED4, SHA1: 4ED372690EF5479BC3F691C8F0339964717A1DF3, SHA256: 59BD87EC905111DC277FC49CDB938CF9B17DED7DDBB3D9DBFA33F65C38DFEB8F, ED2K: BF28859128B3CE923C8207DC74ED7DD7
Screenshots
screenshotscreenshotscreenshotscreenshotscreenshot
SubtitlesAll Attachments | English (Forced) [eng, SRT], English (SDH) [eng, SRT], English [eng, SRT], English [eng, SRT], Arabic [ara, SRT], Czech [cze, SRT], Czech [cze, SRT], Danish [dan, SRT], Danish [dan, SRT], German (SDH) [ger, SRT], German [ger, SRT], German [ger, SRT], Greek [gre, SRT], Greek [gre, SRT], Spanish (SDH) [spa, SRT], Spanish [spa, SRT], Spanish [spa, SRT], European Spanish [spa, SRT], European Spanish [spa, SRT], Finnish [fin, SRT], Finnish [fin, SRT], Filipino [fil, SRT], French (SDH) [fre, SRT], French [fre, SRT], French [fre, SRT], Hebrew [heb, SRT], Croatian [hrv, SRT], Croatian [hrv, SRT], Hungarian [hun, SRT], Hungarian [hun, SRT], Indonesian [ind, SRT], Indonesian [ind, SRT], Italian [ita, SRT], Italian [ita, SRT], Japanese (SDH) [jpn, SRT], Korean [kor, SRT], Korean [kor, SRT], Malay [may, SRT], Malay [may, SRT], Norwegian Bokmal [nob, SRT], Norwegian Bokmal [nob, SRT], Dutch [dut, SRT], Dutch [dut, SRT], Polish [pol, SRT], Portuguese [por, SRT], Portuguese [por, SRT], Brazilian Portuguese [por, SRT], Brazilian Portuguese [por, SRT], Romanian [rum, SRT], Romanian [rum, SRT], Russian [rus, SRT], Swedish [swe, SRT], Swedish [swe, SRT], Tamil (Forced) [tam, SRT], Telugu (Forced) [tel, SRT], Thai [tha, SRT], Thai [tha, SRT], Turkish [tur, SRT], Turkish [tur, SRT], Ukrainian [ukr, SRT], Ukrainian [ukr, SRT], Vietnamese [vie, SRT], Vietnamese [vie, SRT], Chinese Simplified [chi, SRT], Chinese Traditional [chi, SRT], Chinese Traditional [chi, SRT]
Additional Info
General
Unique ID                                : 321438030268336205972921427900156040009 (0xF1D2B6787AA0FE5ACC8ABAA398BF5349)
Complete name                            : Pokemon Concierge S01E04 Welcome to the Pokemon Resort [1080p AV1][Netflix WEB-DL].mkv
Format                                   : Matroska
Format version                           : Version 4
File size                                : 208 MiB
Duration                                 : 20 min 7 s
Overall bit rate                         : 1 448 kb/s
Frame rate                               : 24.000 FPS
Encoded date                             : 2024-04-30 13:11:51 UTC
Writing application                      : mkvmerge v72.0.0 ('Minuano (Six-eight)') 64-bit
Writing library                          : libebml v1.4.4 + libmatroska v1.7.1

Video
ID                                       : 1
Format                                   : AV1
Format/Info                              : AOMedia Video 1
Format profile                           : Main@L4.0
Codec ID                                 : V_AV1
Duration                                 : 20 min 7 s
Bit rate                                 : 1 056 kb/s
Width                                    : 1 920 pixels
Height                                   : 1 080 pixels
Display aspect ratio                     : 16:9
Frame rate mode                          : Constant
Frame rate                               : 24.000 FPS
Color space                              : YUV
Chroma subsampling                       : 4:2:0
Bit depth                                : 10 bits
Bits/(Pixel*Frame)                       : 0.021
Stream size                              : 152 MiB (73%)
Default                                  : Yes
Forced                                   : No
Color range                              : Limited

Audio #1
ID                                       : 2
Format                                   : AAC LC SBR
Format/Info                              : Advanced Audio Codec Low Complexity with Spectral Band Replication
Commercial name                          : HE-AAC
Format settings                          : Explicit
Codec ID                                 : A_AAC-2
Duration                                 : 20 min 7 s
Bit rate                                 : 192 kb/s
Channel(s)                               : 6 channels
Channel layout                           : C L R Ls Rs LFE
Sampling rate                            : 48.0 kHz
Frame rate                               : 23.438 FPS (2048 SPF)
Compression mode                         : Lossy
Stream size                              : 27.6 MiB (13%)
Title                                    : Japanese
Language                                 : Japanese
Default                                  : Yes
Forced                                   : No

Audio #2
ID                                       : 3
Format                                   : AAC LC SBR
Format/Info                              : Advanced Audio Codec Low Complexity with Spectral Band Replication
Commercial name                          : HE-AAC
Format settings                          : Explicit
Codec ID                                 : A_AAC-2
Duration                                 : 20 min 7 s
Bit rate                                 : 192 kb/s
Channel(s)                               : 6 channels
Channel layout                           : C L R Ls Rs LFE
Sampling rate                            : 48.0 kHz
Frame rate                               : 23.438 FPS (2048 SPF)
Compression mode                         : Lossy
Stream size                              : 27.6 MiB (13%)
Title                                    : English
Language                                 : English
Default                                  : No
Forced                                   : No

Text #1
ID                                       : 4
Format                                   : UTF-8
Codec ID                                 : S_TEXT/UTF8
Codec ID/Info                            : UTF-8 Plain Text
Duration                                 : 2 min 12 s
Bit rate                                 : 37 b/s
Frame rate                               : 0.120 FPS
Count of elements                        : 16
Stream size                              : 623 Bytes (0%)
Title                                    : English (Forced)
Language                                 : English
Default                                  : No
Forced                                   : Yes

Text #2
ID                                       : 5
Format                                   : UTF-8
Codec ID                                 : S_TEXT/UTF8
Codec ID/Info                            : UTF-8 Plain Text
Duration                                 : 16 min 43 s
Bit rate                                 : 68 b/s
Frame rate                               : 0.280 FPS
Count of elements                        : 281
Stream size                              : 8.36 KiB (0%)
Title                                    : English (SDH)
Language                                 : English
Default                                  : No
Forced                                   : No

Text #3
ID                                       : 6
Format                                   : UTF-8
Codec ID                                 : S_TEXT/UTF8
Codec ID/Info                            : UTF-8 Plain Text
Duration                                 : 13 min 59 s
Bit rate                                 : 64 b/s
Frame rate                               : 0.260 FPS
Count of elements                        : 218
Stream size                              : 6.64 KiB (0%)
Title                                    : English
Language                                 : English
Default                                  : No
Forced                                   : No

Text #4
ID                                       : 7
Format                                   : UTF-8
Codec ID                                 : S_TEXT/UTF8
Codec ID/Info                            : UTF-8 Plain Text
Duration                                 : 12 min 54 s
Bit rate                                 : 58 b/s
Frame rate                               : 0.221 FPS
Count of elements                        : 171
Stream size                              : 5.52 KiB (0%)
Title                                    : English
Language                                 : English
Default                                  : Yes
Forced                                   : No

Text #5
ID                                       : 8
Format                                   : UTF-8
Codec ID                                 : S_TEXT/UTF8
Codec ID/Info                            : UTF-8 Plain Text
Duration                                 : 16 min 29 s
Bit rate                                 : 79 b/s
Frame rate                               : 0.186 FPS
Count of elements                        : 184
Stream size                              : 9.59 KiB (0%)
Title                                    : Arabic
Language                                 : Arabic
Default                                  : No
Forced                                   : No

Text #6
ID                                       : 9
Format                                   : UTF-8
Codec ID                                 : S_TEXT/UTF8
Codec ID/Info                            : UTF-8 Plain Text
Duration                                 : 13 min 46 s
Bit rate                                 : 53 b/s
Frame rate                               : 0.209 FPS
Count of elements                        : 173
Stream size                              : 5.40 KiB (0%)
Title                                    : Czech
Language                                 : Czech
Default                                  : No
Forced                                   : No

Text #7
ID                                       : 10
Format                                   : UTF-8
Codec ID                                 : S_TEXT/UTF8
Codec ID/Info                            : UTF-8 Plain Text
Duration                                 : 16 min 29 s
Bit rate                                 : 46 b/s
Frame rate                               : 0.193 FPS
Count of elements                        : 191
Stream size                              : 5.57 KiB (0%)
Title                                    : Czech
Language                                 : Czech
Default                                  : No
Forced                                   : No

Text #8
ID                                       : 11
Format                                   : UTF-8
Codec ID                                 : S_TEXT/UTF8
Codec ID/Info                            : UTF-8 Plain Text
Duration                                 : 16 min 13 s
Bit rate                                 : 48 b/s
Frame rate                               : 0.194 FPS
Count of elements                        : 189
Stream size                              : 5.77 KiB (0%)
Title                                    : Danish
Language                                 : Danish
Default                                  : No
Forced                                   : No

Text #9
ID                                       : 12
Format                                   : UTF-8
Codec ID                                 : S_TEXT/UTF8
Codec ID/Info                            : UTF-8 Plain Text
Duration                                 : 12 min 32 s
Bit rate                                 : 69 b/s
Frame rate                               : 0.201 FPS
Count of elements                        : 151
Stream size                              : 6.39 KiB (0%)
Title                                    : Danish
Language                                 : Danish
Default                                  : No
Forced                                   : No

Text #10
ID                                       : 13
Format                                   : UTF-8
Codec ID                                 : S_TEXT/UTF8
Codec ID/Info                            : UTF-8 Plain Text
Duration                                 : 14 min 31 s
Bit rate                                 : 82 b/s
Frame rate                               : 0.280 FPS
Count of elements                        : 244
Stream size                              : 8.79 KiB (0%)
Title                                    : German (SDH)
Language                                 : German
Default                                  : No
Forced                                   : No

Text #11
ID                                       : 14
Format                                   : UTF-8
Codec ID                                 : S_TEXT/UTF8
Codec ID/Info                            : UTF-8 Plain Text
Duration                                 : 16 min 29 s
Bit rate                                 : 49 b/s
Frame rate                               : 0.186 FPS
Count of elements                        : 184
Stream size                              : 6.00 KiB (0%)
Title                                    : German
Language                                 : German
Default                                  : No
Forced                                   : No

Text #12
ID                                       : 15
Format                                   : UTF-8
Codec ID                                 : S_TEXT/UTF8
Codec ID/Info                            : UTF-8 Plain Text
Duration                                 : 14 min 4 s
Bit rate                                 : 59 b/s
Frame rate                               : 0.210 FPS
Count of elements                        : 177
Stream size                              : 6.12 KiB (0%)
Title                                    : German
Language                                 : German
Default                                  : No
Forced                                   : No

Text #13
ID                                       : 16
Format                                   : UTF-8
Codec ID                                 : S_TEXT/UTF8
Codec ID/Info                            : UTF-8 Plain Text
Duration                                 : 13 min 45 s
Bit rate                                 : 102 b/s
Frame rate                               : 0.217 FPS
Count of elements                        : 179
Stream size                              : 10.4 KiB (0%)
Title                                    : Greek
Language                                 : Greek
Default                                  : No
Forced                                   : No

Text #14
ID                                       : 17
Format                                   : UTF-8
Codec ID                                 : S_TEXT/UTF8
Codec ID/Info                            : UTF-8 Plain Text
Duration                                 : 16 min 29 s
Bit rate                                 : 79 b/s
Frame rate                               : 0.186 FPS
Count of elements                        : 184
Stream size                              : 9.59 KiB (0%)
Title                                    : Greek
Language                                 : Greek
Default                                  : No
Forced                                   : No

Text #15
ID                                       : 18
Format                                   : UTF-8
Codec ID                                 : S_TEXT/UTF8
Codec ID/Info                            : UTF-8 Plain Text
Duration                                 : 17 min 0 s
Bit rate                                 : 58 b/s
Frame rate                               : 0.235 FPS
Count of elements                        : 240
Stream size                              : 7.35 KiB (0%)
Title                                    : Spanish (SDH)
Language                                 : Spanish
Default                                  : No
Forced                                   : No

Text #16
ID                                       : 19
Format                                   : UTF-8
Codec ID                                 : S_TEXT/UTF8
Codec ID/Info                            : UTF-8 Plain Text
Duration                                 : 16 min 29 s
Bit rate                                 : 49 b/s
Frame rate                               : 0.196 FPS
Count of elements                        : 194
Stream size                              : 5.95 KiB (0%)
Title                                    : Spanish
Language                                 : Spanish
Default                                  : No
Forced                                   : No

Text #17
ID                                       : 20
Format                                   : UTF-8
Codec ID                                 : S_TEXT/UTF8
Codec ID/Info                            : UTF-8 Plain Text
Duration                                 : 16 min 29 s
Bit rate                                 : 48 b/s
Frame rate                               : 0.193 FPS
Count of elements                        : 191
Stream size                              : 5.81 KiB (0%)
Title                                    : Spanish
Language                                 : Spanish
Default                                  : No
Forced                                   : No

Text #18
ID                                       : 21
Format                                   : UTF-8
Codec ID                                 : S_TEXT/UTF8
Codec ID/Info                            : UTF-8 Plain Text
Duration                                 : 16 min 29 s
Bit rate                                 : 47 b/s
Frame rate                               : 0.193 FPS
Count of elements                        : 191
Stream size                              : 5.71 KiB (0%)
Title                                    : European Spanish
Language                                 : Spanish (ES)
Default                                  : No
Forced                                   : No

Text #19
ID                                       : 22
Format                                   : UTF-8
Codec ID                                 : S_TEXT/UTF8
Codec ID/Info                            : UTF-8 Plain Text
Duration                                 : 13 min 44 s
Bit rate                                 : 56 b/s
Frame rate                               : 0.262 FPS
Count of elements                        : 216
Stream size                              : 5.67 KiB (0%)
Title                                    : European Spanish
Language                                 : Spanish (ES)
Default                                  : No
Forced                                   : No

Text #20
ID                                       : 23
Format                                   : UTF-8
Codec ID                                 : S_TEXT/UTF8
Codec ID/Info                            : UTF-8 Plain Text
Duration                                 : 16 min 29 s
Bit rate                                 : 46 b/s
Frame rate                               : 0.193 FPS
Count of elements                        : 191
Stream size                              : 5.65 KiB (0%)
Title                                    : Finnish
Language                                 : Finnish
Default                                  : No
Forced                                   : No

Text #21
ID                                       : 24
Format                                   : UTF-8
Codec ID                                 : S_TEXT/UTF8
Codec ID/Info                            : UTF-8 Plain Text
Duration                                 : 14 min 18 s
Bit rate                                 : 62 b/s
Frame rate                               : 0.239 FPS
Count of elements                        : 205
Stream size                              : 6.60 KiB (0%)
Title                                    : Finnish
Language                                 : Finnish
Default                                  : No
Forced                                   : No

Text #22
ID                                       : 25
Format                                   : UTF-8
Codec ID                                 : S_TEXT/UTF8
Codec ID/Info                            : UTF-8 Plain Text
Duration                                 : 16 min 29 s
Bit rate                                 : 49 b/s
Frame rate                               : 0.191 FPS
Count of elements                        : 189
Stream size                              : 5.98 KiB (0%)
Title                                    : Filipino
Language                                 : Filipino
Default                                  : No
Forced                                   : No

Text #23
ID                                       : 26
Format                                   : UTF-8
Codec ID                                 : S_TEXT/UTF8
Codec ID/Info                            : UTF-8 Plain Text
Duration                                 : 17 min 2 s
Bit rate                                 : 80 b/s
Frame rate                               : 0.308 FPS
Count of elements                        : 315
Stream size                              : 10.0 KiB (0%)
Title                                    : French (SDH)
Language                                 : French
Default                                  : No
Forced                                   : No

Text #24
ID                                       : 27
Format                                   : UTF-8
Codec ID                                 : S_TEXT/UTF8
Codec ID/Info                            : UTF-8 Plain Text
Duration                                 : 16 min 29 s
Bit rate                                 : 49 b/s
Frame rate                               : 0.193 FPS
Count of elements                        : 191
Stream size                              : 5.98 KiB (0%)
Title                                    : French
Language                                 : French
Default                                  : No
Forced                                   : No

Text #25
ID                                       : 28
Format                                   : UTF-8
Codec ID                                 : S_TEXT/UTF8
Codec ID/Info                            : UTF-8 Plain Text
Duration                                 : 16 min 40 s
Bit rate                                 : 58 b/s
Frame rate                               : 0.211 FPS
Count of elements                        : 211
Stream size                              : 7.15 KiB (0%)
Title                                    : French
Language                                 : French
Default                                  : No
Forced                                   : No

Text #26
ID                                       : 29
Format                                   : UTF-8
Codec ID                                 : S_TEXT/UTF8
Codec ID/Info                            : UTF-8 Plain Text
Duration                                 : 16 min 29 s
Bit rate                                 : 69 b/s
Frame rate                               : 0.186 FPS
Count of elements                        : 184
Stream size                              : 8.45 KiB (0%)
Title                                    : Hebrew
Language                                 : Hebrew
Default                                  : No
Forced                                   : No

Text #27
ID                                       : 30
Format                                   : UTF-8
Codec ID                                 : S_TEXT/UTF8
Codec ID/Info                            : UTF-8 Plain Text
Duration                                 : 13 min 46 s
Bit rate                                 : 46 b/s
Frame rate                               : 0.208 FPS
Count of elements                        : 172
Stream size                              : 4.66 KiB (0%)
Title                                    : Croatian
Language                                 : Croatian
Default                                  : No
Forced                                   : No

Text #28
ID                                       : 31
Format                                   : UTF-8
Codec ID                                 : S_TEXT/UTF8
Codec ID/Info                            : UTF-8 Plain Text
Duration                                 : 16 min 29 s
Bit rate                                 : 38 b/s
Frame rate                               : 0.184 FPS
Count of elements                        : 182
Stream size                              : 4.65 KiB (0%)
Title                                    : Croatian
Language                                 : Croatian
Default                                  : No
Forced                                   : No

Text #29
ID                                       : 32
Format                                   : UTF-8
Codec ID                                 : S_TEXT/UTF8
Codec ID/Info                            : UTF-8 Plain Text
Duration                                 : 16 min 29 s
Bit rate                                 : 47 b/s
Frame rate                               : 0.191 FPS
Count of elements                        : 189
Stream size                              : 5.70 KiB (0%)
Title                                    : Hungarian
Language                                 : Hungarian
Default                                  : No
Forced                                   : No

Text #30
ID                                       : 33
Format                                   : UTF-8
Codec ID                                 : S_TEXT/UTF8
Codec ID/Info                            : UTF-8 Plain Text
Duration                                 : 12 min 34 s
Bit rate                                 : 57 b/s
Frame rate                               : 0.196 FPS
Count of elements                        : 148
Stream size                              : 5.27 KiB (0%)
Title                                    : Hungarian
Language                                 : Hungarian
Default                                  : No
Forced                                   : No

Text #31
ID                                       : 34
Format                                   : UTF-8
Codec ID                                 : S_TEXT/UTF8
Codec ID/Info                            : UTF-8 Plain Text
Duration                                 : 16 min 29 s
Bit rate                                 : 41 b/s
Frame rate                               : 0.173 FPS
Count of elements                        : 171
Stream size                              : 5.03 KiB (0%)
Title                                    : Indonesian
Language                                 : Indonesian
Default                                  : No
Forced                                   : No

Text #32
ID                                       : 35
Format                                   : UTF-8
Codec ID                                 : S_TEXT/UTF8
Codec ID/Info                            : UTF-8 Plain Text
Duration                                 : 12 min 34 s
Bit rate                                 : 55 b/s
Frame rate                               : 0.207 FPS
Count of elements                        : 156
Stream size                              : 5.10 KiB (0%)
Title                                    : Indonesian
Language                                 : Indonesian
Default                                  : No
Forced                                   : No

Text #33
ID                                       : 36
Format                                   : UTF-8
Codec ID                                 : S_TEXT/UTF8
Codec ID/Info                            : UTF-8 Plain Text
Duration                                 : 16 min 39 s
Bit rate                                 : 53 b/s
Frame rate                               : 0.225 FPS
Count of elements                        : 225
Stream size                              : 6.47 KiB (0%)
Title                                    : Italian
Language                                 : Italian
Default                                  : No
Forced                                   : No

Text #34
ID                                       : 37
Format                                   : UTF-8
Codec ID                                 : S_TEXT/UTF8
Codec ID/Info                            : UTF-8 Plain Text
Duration                                 : 16 min 29 s
Bit rate                                 : 42 b/s
Frame rate                               : 0.186 FPS
Count of elements                        : 184
Stream size                              : 5.11 KiB (0%)
Title                                    : Italian
Language                                 : Italian
Default                                  : No
Forced                                   : No

Text #35
ID                                       : 38
Format                                   : UTF-8
Codec ID                                 : S_TEXT/UTF8
Codec ID/Info                            : UTF-8 Plain Text
Duration                                 : 16 min 41 s
Bit rate                                 : 79 b/s
Frame rate                               : 0.260 FPS
Count of elements                        : 260
Stream size                              : 9.67 KiB (0%)
Title                                    : Japanese (SDH)
Language                                 : Japanese
Default                                  : No
Forced                                   : No

Text #36
ID                                       : 39
Format                                   : UTF-8
Codec ID                                 : S_TEXT/UTF8
Codec ID/Info                            : UTF-8 Plain Text
Duration                                 : 13 min 45 s
Bit rate                                 : 59 b/s
Frame rate                               : 0.229 FPS
Count of elements                        : 189
Stream size                              : 6.03 KiB (0%)
Title                                    : Korean
Language                                 : Korean
Default                                  : No
Forced                                   : No

Text #37
ID                                       : 40
Format                                   : UTF-8
Codec ID                                 : S_TEXT/UTF8
Codec ID/Info                            : UTF-8 Plain Text
Duration                                 : 13 min 43 s
Bit rate                                 : 62 b/s
Frame rate                               : 0.298 FPS
Count of elements                        : 245
Stream size                              : 6.26 KiB (0%)
Title                                    : Korean
Language                                 : Korean
Default                                  : No
Forced                                   : No

Text #38
ID                                       : 41
Format                                   : UTF-8
Codec ID                                 : S_TEXT/UTF8
Codec ID/Info                            : UTF-8 Plain Text
Duration                                 : 16 min 29 s
Bit rate                                 : 48 b/s
Frame rate                               : 0.190 FPS
Count of elements                        : 188
Stream size                              : 5.88 KiB (0%)
Title                                    : Malay
Language                                 : Malay
Default                                  : No
Forced                                   : No

Text #39
ID                                       : 42
Format                                   : UTF-8
Codec ID                                 : S_TEXT/UTF8
Codec ID/Info                            : UTF-8 Plain Text
Duration                                 : 13 min 45 s
Bit rate                                 : 55 b/s
Frame rate                               : 0.217 FPS
Count of elements                        : 179
Stream size                              : 5.60 KiB (0%)
Title                                    : Malay
Language                                 : Malay
Default                                  : No
Forced                                   : No

Text #40
ID                                       : 43
Format                                   : UTF-8
Codec ID                                 : S_TEXT/UTF8
Codec ID/Info                            : UTF-8 Plain Text
Duration                                 : 12 min 35 s
Bit rate                                 : 65 b/s
Frame rate                               : 0.217 FPS
Count of elements                        : 164
Stream size                              : 6.08 KiB (0%)
Title                                    : Norwegian Bokmal
Language                                 : Norwegian Bokmal
Default                                  : No
Forced                                   : No

Text #41
ID                                       : 44
Format                                   : UTF-8
Codec ID                                 : S_TEXT/UTF8
Codec ID/Info                            : UTF-8 Plain Text
Duration                                 : 16 min 29 s
Bit rate                                 : 48 b/s
Frame rate                               : 0.192 FPS
Count of elements                        : 190
Stream size                              : 5.80 KiB (0%)
Title                                    : Norwegian Bokmal
Language                                 : Norwegian Bokmal
Default                                  : No
Forced                                   : No

Text #42
ID                                       : 45
Format                                   : UTF-8
Codec ID                                 : S_TEXT/UTF8
Codec ID/Info                            : UTF-8 Plain Text
Duration                                 : 16 min 29 s
Bit rate                                 : 43 b/s
Frame rate                               : 0.186 FPS
Count of elements                        : 184
Stream size                              : 5.22 KiB (0%)
Title                                    : Dutch
Language                                 : Dutch
Default                                  : No
Forced                                   : No

Text #43
ID                                       : 46
Format                                   : UTF-8
Codec ID                                 : S_TEXT/UTF8
Codec ID/Info                            : UTF-8 Plain Text
Duration                                 : 13 min 45 s
Bit rate                                 : 59 b/s
Frame rate                               : 0.212 FPS
Count of elements                        : 175
Stream size                              : 6.01 KiB (0%)
Title                                    : Dutch
Language                                 : Dutch
Default                                  : No
Forced                                   : No

Text #44
ID                                       : 47
Format                                   : UTF-8
Codec ID                                 : S_TEXT/UTF8
Codec ID/Info                            : UTF-8 Plain Text
Duration                                 : 16 min 29 s
Bit rate                                 : 45 b/s
Frame rate                               : 0.186 FPS
Count of elements                        : 184
Stream size                              : 5.49 KiB (0%)
Title                                    : Polish
Language                                 : Polish
Default                                  : No
Forced                                   : No

Text #45
ID                                       : 48
Format                                   : UTF-8
Codec ID                                 : S_TEXT/UTF8
Codec ID/Info                            : UTF-8 Plain Text
Duration                                 : 13 min 45 s
Bit rate                                 : 61 b/s
Frame rate                               : 0.218 FPS
Count of elements                        : 180
Stream size                              : 6.18 KiB (0%)
Title                                    : Portuguese
Language                                 : Portuguese
Default                                  : No
Forced                                   : No

Text #46
ID                                       : 49
Format                                   : UTF-8
Codec ID                                 : S_TEXT/UTF8
Codec ID/Info                            : UTF-8 Plain Text
Duration                                 : 16 min 29 s
Bit rate                                 : 46 b/s
Frame rate                               : 0.185 FPS
Count of elements                        : 183
Stream size                              : 5.57 KiB (0%)
Title                                    : Portuguese
Language                                 : Portuguese
Default                                  : No
Forced                                   : No

Text #47
ID                                       : 50
Format                                   : UTF-8
Codec ID                                 : S_TEXT/UTF8
Codec ID/Info                            : UTF-8 Plain Text
Duration                                 : 16 min 29 s
Bit rate                                 : 43 b/s
Frame rate                               : 0.191 FPS
Count of elements                        : 189
Stream size                              : 5.28 KiB (0%)
Title                                    : Brazilian Portuguese
Language                                 : Portuguese (BR)
Default                                  : No
Forced                                   : No

Text #48
ID                                       : 51
Format                                   : UTF-8
Codec ID                                 : S_TEXT/UTF8
Codec ID/Info                            : UTF-8 Plain Text
Duration                                 : 13 min 45 s
Bit rate                                 : 58 b/s
Frame rate                               : 0.202 FPS
Count of elements                        : 167
Stream size                              : 5.94 KiB (0%)
Title                                    : Brazilian Portuguese
Language                                 : Portuguese (BR)
Default                                  : No
Forced                                   : No

Text #49
ID                                       : 52
Format                                   : UTF-8
Codec ID                                 : S_TEXT/UTF8
Codec ID/Info                            : UTF-8 Plain Text
Duration                                 : 13 min 52 s
Bit rate                                 : 60 b/s
Frame rate                               : 0.221 FPS
Count of elements                        : 184
Stream size                              : 6.17 KiB (0%)
Title                                    : Romanian
Language                                 : Romanian
Default                                  : No
Forced                                   : No

Text #50
ID                                       : 53
Format                                   : UTF-8
Codec ID                                 : S_TEXT/UTF8
Codec ID/Info                            : UTF-8 Plain Text
Duration                                 : 16 min 29 s
Bit rate                                 : 47 b/s
Frame rate                               : 0.191 FPS
Count of elements                        : 189
Stream size                              : 5.79 KiB (0%)
Title                                    : Romanian
Language                                 : Romanian
Default                                  : No
Forced                                   : No

Text #51
ID                                       : 54
Format                                   : UTF-8
Codec ID                                 : S_TEXT/UTF8
Codec ID/Info                            : UTF-8 Plain Text
Duration                                 : 16 min 29 s
Bit rate                                 : 76 b/s
Frame rate                               : 0.193 FPS
Count of elements                        : 191
Stream size                              : 9.25 KiB (0%)
Title                                    : Russian
Language                                 : Russian
Default                                  : No
Forced                                   : No

Text #52
ID                                       : 55
Format                                   : UTF-8
Codec ID                                 : S_TEXT/UTF8
Codec ID/Info                            : UTF-8 Plain Text
Duration                                 : 13 min 47 s
Bit rate                                 : 60 b/s
Frame rate                               : 0.192 FPS
Count of elements                        : 159
Stream size                              : 6.09 KiB (0%)
Title                                    : Swedish
Language                                 : Swedish
Default                                  : No
Forced                                   : No

Text #53
ID                                       : 56
Format                                   : UTF-8
Codec ID                                 : S_TEXT/UTF8
Codec ID/Info                            : UTF-8 Plain Text
Duration                                 : 16 min 29 s
Bit rate                                 : 46 b/s
Frame rate                               : 0.186 FPS
Count of elements                        : 184
Stream size                              : 5.61 KiB (0%)
Title                                    : Swedish
Language                                 : Swedish
Default                                  : No
Forced                                   : No

Text #54
ID                                       : 57
Format                                   : UTF-8
Codec ID                                 : S_TEXT/UTF8
Codec ID/Info                            : UTF-8 Plain Text
Duration                                 : 12 min 45 s
Bit rate                                 : 30 b/s
Frame rate                               : 0.047 FPS
Count of elements                        : 36
Stream size                              : 2.87 KiB (0%)
Title                                    : Tamil (Forced)
Language                                 : Tamil
Default                                  : No
Forced                                   : Yes

Text #55
ID                                       : 58
Format                                   : UTF-8
Codec ID                                 : S_TEXT/UTF8
Codec ID/Info                            : UTF-8 Plain Text
Duration                                 : 12 min 9 s
Bit rate                                 : 1 b/s
Frame rate                               : 0.004 FPS
Count of elements                        : 3
Stream size                              : 136 Bytes (0%)
Title                                    : Telugu (Forced)
Language                                 : Telugu
Default                                  : No
Forced                                   : Yes

Text #56
ID                                       : 59
Format                                   : UTF-8
Codec ID                                 : S_TEXT/UTF8
Codec ID/Info                            : UTF-8 Plain Text
Duration                                 : 16 min 29 s
Bit rate                                 : 107 b/s
Frame rate                               : 0.191 FPS
Count of elements                        : 189
Stream size                              : 13.0 KiB (0%)
Title                                    : Thai
Language                                 : Thai
Default                                  : No
Forced                                   : No

Text #57
ID                                       : 60
Format                                   : UTF-8
Codec ID                                 : S_TEXT/UTF8
Codec ID/Info                            : UTF-8 Plain Text
Duration                                 : 13 min 54 s
Bit rate                                 : 145 b/s
Frame rate                               : 0.260 FPS
Count of elements                        : 217
Stream size                              : 14.8 KiB (0%)
Title                                    : Thai
Language                                 : Thai
Default                                  : No
Forced                                   : No

Text #58
ID                                       : 61
Format                                   : UTF-8
Codec ID                                 : S_TEXT/UTF8
Codec ID/Info                            : UTF-8 Plain Text
Duration                                 : 16 min 29 s
Bit rate                                 : 47 b/s
Frame rate                               : 0.186 FPS
Count of elements                        : 184
Stream size                              : 5.76 KiB (0%)
Title                                    : Turkish
Language                                 : Turkish
Default                                  : No
Forced                                   : No

Text #59
ID                                       : 62
Format                                   : UTF-8
Codec ID                                 : S_TEXT/UTF8
Codec ID/Info                            : UTF-8 Plain Text
Duration                                 : 13 min 46 s
Bit rate                                 : 55 b/s
Frame rate                               : 0.214 FPS
Count of elements                        : 177
Stream size                              : 5.64 KiB (0%)
Title                                    : Turkish
Language                                 : Turkish
Default                                  : No
Forced                                   : No

Text #60
ID                                       : 63
Format                                   : UTF-8
Codec ID                                 : S_TEXT/UTF8
Codec ID/Info                            : UTF-8 Plain Text
Duration                                 : 16 min 29 s
Bit rate                                 : 77 b/s
Frame rate                               : 0.193 FPS
Count of elements                        : 191
Stream size                              : 9.35 KiB (0%)
Title                                    : Ukrainian
Language                                 : Ukrainian
Default                                  : No
Forced                                   : No

Text #61
ID                                       : 64
Format                                   : UTF-8
Codec ID                                 : S_TEXT/UTF8
Codec ID/Info                            : UTF-8 Plain Text
Duration                                 : 13 min 48 s
Bit rate                                 : 89 b/s
Frame rate                               : 0.205 FPS
Count of elements                        : 170
Stream size                              : 9.06 KiB (0%)
Title                                    : Ukrainian
Language                                 : Ukrainian
Default                                  : No
Forced                                   : No

Text #62
ID                                       : 65
Format                                   : UTF-8
Codec ID                                 : S_TEXT/UTF8
Codec ID/Info                            : UTF-8 Plain Text
Duration                                 : 16 min 29 s
Bit rate                                 : 57 b/s
Frame rate                               : 0.190 FPS
Count of elements                        : 188
Stream size                              : 6.99 KiB (0%)
Title                                    : Vietnamese
Language                                 : Vietnamese
Default                                  : No
Forced                                   : No

Text #63
ID                                       : 66
Format                                   : UTF-8
Codec ID                                 : S_TEXT/UTF8
Codec ID/Info                            : UTF-8 Plain Text
Duration                                 : 12 min 34 s
Bit rate                                 : 85 b/s
Frame rate                               : 0.212 FPS
Count of elements                        : 160
Stream size                              : 7.86 KiB (0%)
Title                                    : Vietnamese
Language                                 : Vietnamese
Default                                  : No
Forced                                   : No

Text #64
ID                                       : 67
Format                                   : UTF-8
Codec ID                                 : S_TEXT/UTF8
Codec ID/Info                            : UTF-8 Plain Text
Duration                                 : 13 min 45 s
Bit rate                                 : 52 b/s
Frame rate                               : 0.229 FPS
Count of elements                        : 189
Stream size                              : 5.28 KiB (0%)
Title                                    : Chinese Simplified
Language                                 : Chinese (Simplified)
Default                                  : No
Forced                                   : No

Text #65
ID                                       : 68
Format                                   : UTF-8
Codec ID                                 : S_TEXT/UTF8
Codec ID/Info                            : UTF-8 Plain Text
Duration                                 : 16 min 39 s
Bit rate                                 : 51 b/s
Frame rate                               : 0.186 FPS
Count of elements                        : 186
Stream size                              : 6.25 KiB (0%)
Title                                    : Chinese Traditional
Language                                 : Chinese (Traditional)
Default                                  : No
Forced                                   : No

Text #66
ID                                       : 69
Format                                   : UTF-8
Codec ID                                 : S_TEXT/UTF8
Codec ID/Info                            : UTF-8 Plain Text
Duration                                 : 13 min 45 s
Bit rate                                 : 56 b/s
Frame rate                               : 0.229 FPS
Count of elements                        : 189
Stream size                              : 5.66 KiB (0%)
Title                                    : Chinese Traditional
Language                                 : Chinese (Traditional)
Default                                  : No
Forced                                   : No

Menu
00:00:00.000                             : en:Part 01
00:16:51.450                             : en:Credits

Other Files in this Torrent
Pokemon Concierge S01E04 Welcome to the Pokemon Resort [1080p AV1][Netflix WEB-DL].mkv
beta
Anime DDL+NZB mirror
Current Time: 13/07/2024 00:41



About/FAQs

Discord