Pokemon Concierge S01E01 Im Haru the New Concierge [1080p AV1][Netflix WEB-DL].mkv


File Size219.3 MB (229,905,847 bytes)
DownloadClickNUpload | DailyUploads | GoFile | KrakenFiles | MdiaLoad | MultiUp
  • BdUpload
  • DownAce
  • Fichier
  • FileCloud
  • Filerio
  • FilesCdn
  • IndiShare
  • Kbagi
  • Turbobit
  • UpToBox
  • Uppit
| Uppit
HashesCRC32: C04E9984, MD5: 5DCE6A3915B8887B5156D2F41D6545BD, SHA1: F3235E53D24173CC30C31FEB1716B53D384E1359, SHA256: 5CDFD055BD77010EC0E4D886BAB8383467D50E829BB043363AF6DA2C9F202E74, ED2K: A07FA910CEC2CB5791194F16F2C95756
Screenshots
screenshotscreenshotscreenshotscreenshotscreenshot
SubtitlesAll Attachments | English (SDH) [eng, SRT], English [eng, SRT], English [eng, SRT], Arabic [ara, SRT], Czech [cze, SRT], Czech [cze, SRT], Danish [dan, SRT], Danish [dan, SRT], German (SDH) [ger, SRT], German [ger, SRT], German [ger, SRT], Greek [gre, SRT], Greek [gre, SRT], Spanish (SDH) [spa, SRT], Spanish [spa, SRT], Spanish [spa, SRT], European Spanish [spa, SRT], Finnish [fin, SRT], Finnish [fin, SRT], Filipino [fil, SRT], French (SDH) [fre, SRT], French [fre, SRT], French [fre, SRT], Hebrew [heb, SRT], Croatian [hrv, SRT], Croatian [hrv, SRT], Hungarian [hun, SRT], Hungarian [hun, SRT], Indonesian [ind, SRT], Indonesian [ind, SRT], Italian [ita, SRT], Italian [ita, SRT], Japanese (SDH) [jpn, SRT], Korean [kor, SRT], Korean [kor, SRT], Malay [may, SRT], Malay [may, SRT], Norwegian Bokmal [nob, SRT], Norwegian Bokmal [nob, SRT], Dutch [dut, SRT], Dutch [dut, SRT], Polish [pol, SRT], Portuguese [por, SRT], Portuguese [por, SRT], Brazilian Portuguese [por, SRT], Brazilian Portuguese [por, SRT], Romanian [rum, SRT], Romanian [rum, SRT], Russian [rus, SRT], Swedish [swe, SRT], Swedish [swe, SRT], Tamil (Forced) [tam, SRT], Telugu (Forced) [tel, SRT], Thai [tha, SRT], Thai [tha, SRT], Turkish [tur, SRT], Turkish [tur, SRT], Ukrainian [ukr, SRT], Ukrainian [ukr, SRT], Vietnamese [vie, SRT], Vietnamese [vie, SRT], Chinese Simplified [chi, SRT], Chinese Traditional [chi, SRT], Chinese Traditional [chi, SRT]
Additional Info
General
Unique ID                                : 192957634783977581013819781665205017803 (0x912A49E71EB1F9B1E29343F80E205CCB)
Complete name                            : Pokemon Concierge S01E01 Im Haru the New Concierge [1080p AV1][Netflix WEB-DL].mkv
Format                                   : Matroska
Format version                           : Version 4
File size                                : 219 MiB
Duration                                 : 19 min 33 s
Overall bit rate                         : 1 567 kb/s
Frame rate                               : 24.000 FPS
Encoded date                             : 2024-04-30 13:11:45 UTC
Writing application                      : mkvmerge v72.0.0 ('Minuano (Six-eight)') 64-bit
Writing library                          : libebml v1.4.4 + libmatroska v1.7.1

Video
ID                                       : 1
Format                                   : AV1
Format/Info                              : AOMedia Video 1
Format profile                           : Main@L4.0
Codec ID                                 : V_AV1
Duration                                 : 19 min 33 s
Bit rate                                 : 1 174 kb/s
Width                                    : 1 920 pixels
Height                                   : 1 080 pixels
Display aspect ratio                     : 16:9
Frame rate mode                          : Constant
Frame rate                               : 24.000 FPS
Color space                              : YUV
Chroma subsampling                       : 4:2:0
Bit depth                                : 10 bits
Bits/(Pixel*Frame)                       : 0.024
Stream size                              : 164 MiB (75%)
Default                                  : Yes
Forced                                   : No
Color range                              : Limited

Audio #1
ID                                       : 2
Format                                   : AAC LC SBR
Format/Info                              : Advanced Audio Codec Low Complexity with Spectral Band Replication
Commercial name                          : HE-AAC
Format settings                          : Explicit
Codec ID                                 : A_AAC-2
Duration                                 : 19 min 33 s
Bit rate                                 : 192 kb/s
Channel(s)                               : 6 channels
Channel layout                           : C L R Ls Rs LFE
Sampling rate                            : 48.0 kHz
Frame rate                               : 23.438 FPS (2048 SPF)
Compression mode                         : Lossy
Stream size                              : 26.9 MiB (12%)
Title                                    : Japanese
Language                                 : Japanese
Default                                  : Yes
Forced                                   : No

Audio #2
ID                                       : 3
Format                                   : AAC LC SBR
Format/Info                              : Advanced Audio Codec Low Complexity with Spectral Band Replication
Commercial name                          : HE-AAC
Format settings                          : Explicit
Codec ID                                 : A_AAC-2
Duration                                 : 19 min 33 s
Bit rate                                 : 192 kb/s
Channel(s)                               : 6 channels
Channel layout                           : C L R Ls Rs LFE
Sampling rate                            : 48.0 kHz
Frame rate                               : 23.438 FPS (2048 SPF)
Compression mode                         : Lossy
Stream size                              : 26.9 MiB (12%)
Title                                    : English
Language                                 : English
Default                                  : No
Forced                                   : No

Text #1
ID                                       : 4
Format                                   : UTF-8
Codec ID                                 : S_TEXT/UTF8
Codec ID/Info                            : UTF-8 Plain Text
Duration                                 : 16 min 4 s
Bit rate                                 : 74 b/s
Frame rate                               : 0.307 FPS
Count of elements                        : 296
Stream size                              : 8.83 KiB (0%)
Title                                    : English (SDH)
Language                                 : English
Default                                  : No
Forced                                   : No

Text #2
ID                                       : 5
Format                                   : UTF-8
Codec ID                                 : S_TEXT/UTF8
Codec ID/Info                            : UTF-8 Plain Text
Duration                                 : 14 min 9 s
Bit rate                                 : 66 b/s
Frame rate                               : 0.265 FPS
Count of elements                        : 225
Stream size                              : 6.92 KiB (0%)
Title                                    : English
Language                                 : English
Default                                  : No
Forced                                   : No

Text #3
ID                                       : 6
Format                                   : UTF-8
Codec ID                                 : S_TEXT/UTF8
Codec ID/Info                            : UTF-8 Plain Text
Duration                                 : 14 min 9 s
Bit rate                                 : 61 b/s
Frame rate                               : 0.232 FPS
Count of elements                        : 197
Stream size                              : 6.37 KiB (0%)
Title                                    : English
Language                                 : English
Default                                  : Yes
Forced                                   : No

Text #4
ID                                       : 7
Format                                   : UTF-8
Codec ID                                 : S_TEXT/UTF8
Codec ID/Info                            : UTF-8 Plain Text
Duration                                 : 16 min 20 s
Bit rate                                 : 83 b/s
Frame rate                               : 0.204 FPS
Count of elements                        : 200
Stream size                              : 9.99 KiB (0%)
Title                                    : Arabic
Language                                 : Arabic
Default                                  : No
Forced                                   : No

Text #5
ID                                       : 8
Format                                   : UTF-8
Codec ID                                 : S_TEXT/UTF8
Codec ID/Info                            : UTF-8 Plain Text
Duration                                 : 14 min 9 s
Bit rate                                 : 54 b/s
Frame rate                               : 0.203 FPS
Count of elements                        : 172
Stream size                              : 5.68 KiB (0%)
Title                                    : Czech
Language                                 : Czech
Default                                  : No
Forced                                   : No

Text #6
ID                                       : 9
Format                                   : UTF-8
Codec ID                                 : S_TEXT/UTF8
Codec ID/Info                            : UTF-8 Plain Text
Duration                                 : 16 min 20 s
Bit rate                                 : 48 b/s
Frame rate                               : 0.204 FPS
Count of elements                        : 200
Stream size                              : 5.85 KiB (0%)
Title                                    : Czech
Language                                 : Czech
Default                                  : No
Forced                                   : No

Text #7
ID                                       : 10
Format                                   : UTF-8
Codec ID                                 : S_TEXT/UTF8
Codec ID/Info                            : UTF-8 Plain Text
Duration                                 : 16 min 0 s
Bit rate                                 : 53 b/s
Frame rate                               : 0.206 FPS
Count of elements                        : 198
Stream size                              : 6.23 KiB (0%)
Title                                    : Danish
Language                                 : Danish
Default                                  : No
Forced                                   : No

Text #8
ID                                       : 11
Format                                   : UTF-8
Codec ID                                 : S_TEXT/UTF8
Codec ID/Info                            : UTF-8 Plain Text
Duration                                 : 14 min 6 s
Bit rate                                 : 76 b/s
Frame rate                               : 0.194 FPS
Count of elements                        : 164
Stream size                              : 7.92 KiB (0%)
Title                                    : Danish
Language                                 : Danish
Default                                  : No
Forced                                   : No

Text #9
ID                                       : 12
Format                                   : UTF-8
Codec ID                                 : S_TEXT/UTF8
Codec ID/Info                            : UTF-8 Plain Text
Duration                                 : 14 min 21 s
Bit rate                                 : 97 b/s
Frame rate                               : 0.332 FPS
Count of elements                        : 286
Stream size                              : 10.3 KiB (0%)
Title                                    : German (SDH)
Language                                 : German
Default                                  : No
Forced                                   : No

Text #10
ID                                       : 13
Format                                   : UTF-8
Codec ID                                 : S_TEXT/UTF8
Codec ID/Info                            : UTF-8 Plain Text
Duration                                 : 16 min 20 s
Bit rate                                 : 56 b/s
Frame rate                               : 0.203 FPS
Count of elements                        : 199
Stream size                              : 6.74 KiB (0%)
Title                                    : German
Language                                 : German
Default                                  : No
Forced                                   : No

Text #11
ID                                       : 14
Format                                   : UTF-8
Codec ID                                 : S_TEXT/UTF8
Codec ID/Info                            : UTF-8 Plain Text
Duration                                 : 14 min 9 s
Bit rate                                 : 71 b/s
Frame rate                               : 0.248 FPS
Count of elements                        : 211
Stream size                              : 7.46 KiB (0%)
Title                                    : German
Language                                 : German
Default                                  : No
Forced                                   : No

Text #12
ID                                       : 15
Format                                   : UTF-8
Codec ID                                 : S_TEXT/UTF8
Codec ID/Info                            : UTF-8 Plain Text
Duration                                 : 14 min 9 s
Bit rate                                 : 106 b/s
Frame rate                               : 0.210 FPS
Count of elements                        : 178
Stream size                              : 11.1 KiB (0%)
Title                                    : Greek
Language                                 : Greek
Default                                  : No
Forced                                   : No

Text #13
ID                                       : 16
Format                                   : UTF-8
Codec ID                                 : S_TEXT/UTF8
Codec ID/Info                            : UTF-8 Plain Text
Duration                                 : 16 min 20 s
Bit rate                                 : 87 b/s
Frame rate                               : 0.203 FPS
Count of elements                        : 199
Stream size                              : 10.5 KiB (0%)
Title                                    : Greek
Language                                 : Greek
Default                                  : No
Forced                                   : No

Text #14
ID                                       : 17
Format                                   : UTF-8
Codec ID                                 : S_TEXT/UTF8
Codec ID/Info                            : UTF-8 Plain Text
Duration                                 : 16 min 25 s
Bit rate                                 : 65 b/s
Frame rate                               : 0.247 FPS
Count of elements                        : 243
Stream size                              : 7.93 KiB (0%)
Title                                    : Spanish (SDH)
Language                                 : Spanish
Default                                  : No
Forced                                   : No

Text #15
ID                                       : 18
Format                                   : UTF-8
Codec ID                                 : S_TEXT/UTF8
Codec ID/Info                            : UTF-8 Plain Text
Duration                                 : 16 min 20 s
Bit rate                                 : 57 b/s
Frame rate                               : 0.209 FPS
Count of elements                        : 205
Stream size                              : 6.92 KiB (0%)
Title                                    : Spanish
Language                                 : Spanish
Default                                  : No
Forced                                   : No

Text #16
ID                                       : 19
Format                                   : UTF-8
Codec ID                                 : S_TEXT/UTF8
Codec ID/Info                            : UTF-8 Plain Text
Duration                                 : 16 min 20 s
Bit rate                                 : 54 b/s
Frame rate                               : 0.198 FPS
Count of elements                        : 194
Stream size                              : 6.46 KiB (0%)
Title                                    : Spanish
Language                                 : Spanish
Default                                  : No
Forced                                   : No

Text #17
ID                                       : 20
Format                                   : UTF-8
Codec ID                                 : S_TEXT/UTF8
Codec ID/Info                            : UTF-8 Plain Text
Duration                                 : 16 min 20 s
Bit rate                                 : 51 b/s
Frame rate                               : 0.203 FPS
Count of elements                        : 199
Stream size                              : 6.18 KiB (0%)
Title                                    : European Spanish
Language                                 : Spanish (ES)
Default                                  : No
Forced                                   : No

Text #18
ID                                       : 21
Format                                   : UTF-8
Codec ID                                 : S_TEXT/UTF8
Codec ID/Info                            : UTF-8 Plain Text
Duration                                 : 16 min 20 s
Bit rate                                 : 49 b/s
Frame rate                               : 0.204 FPS
Count of elements                        : 200
Stream size                              : 5.89 KiB (0%)
Title                                    : Finnish
Language                                 : Finnish
Default                                  : No
Forced                                   : No

Text #19
ID                                       : 22
Format                                   : UTF-8
Codec ID                                 : S_TEXT/UTF8
Codec ID/Info                            : UTF-8 Plain Text
Duration                                 : 14 min 16 s
Bit rate                                 : 67 b/s
Frame rate                               : 0.282 FPS
Count of elements                        : 242
Stream size                              : 7.09 KiB (0%)
Title                                    : Finnish
Language                                 : Finnish
Default                                  : No
Forced                                   : No

Text #20
ID                                       : 23
Format                                   : UTF-8
Codec ID                                 : S_TEXT/UTF8
Codec ID/Info                            : UTF-8 Plain Text
Duration                                 : 16 min 20 s
Bit rate                                 : 57 b/s
Frame rate                               : 0.208 FPS
Count of elements                        : 204
Stream size                              : 6.87 KiB (0%)
Title                                    : Filipino
Language                                 : Filipino
Default                                  : No
Forced                                   : No

Text #21
ID                                       : 24
Format                                   : UTF-8
Codec ID                                 : S_TEXT/UTF8
Codec ID/Info                            : UTF-8 Plain Text
Duration                                 : 16 min 26 s
Bit rate                                 : 87 b/s
Frame rate                               : 0.320 FPS
Count of elements                        : 316
Stream size                              : 10.6 KiB (0%)
Title                                    : French (SDH)
Language                                 : French
Default                                  : No
Forced                                   : No

Text #22
ID                                       : 25
Format                                   : UTF-8
Codec ID                                 : S_TEXT/UTF8
Codec ID/Info                            : UTF-8 Plain Text
Duration                                 : 16 min 20 s
Bit rate                                 : 54 b/s
Frame rate                               : 0.204 FPS
Count of elements                        : 200
Stream size                              : 6.52 KiB (0%)
Title                                    : French
Language                                 : French
Default                                  : No
Forced                                   : No

Text #23
ID                                       : 26
Format                                   : UTF-8
Codec ID                                 : S_TEXT/UTF8
Codec ID/Info                            : UTF-8 Plain Text
Duration                                 : 16 min 19 s
Bit rate                                 : 70 b/s
Frame rate                               : 0.241 FPS
Count of elements                        : 236
Stream size                              : 8.46 KiB (0%)
Title                                    : French
Language                                 : French
Default                                  : No
Forced                                   : No

Text #24
ID                                       : 27
Format                                   : UTF-8
Codec ID                                 : S_TEXT/UTF8
Codec ID/Info                            : UTF-8 Plain Text
Duration                                 : 16 min 20 s
Bit rate                                 : 76 b/s
Frame rate                               : 0.204 FPS
Count of elements                        : 200
Stream size                              : 9.09 KiB (0%)
Title                                    : Hebrew
Language                                 : Hebrew
Default                                  : No
Forced                                   : No

Text #25
ID                                       : 28
Format                                   : UTF-8
Codec ID                                 : S_TEXT/UTF8
Codec ID/Info                            : UTF-8 Plain Text
Duration                                 : 14 min 9 s
Bit rate                                 : 50 b/s
Frame rate                               : 0.255 FPS
Count of elements                        : 217
Stream size                              : 5.20 KiB (0%)
Title                                    : Croatian
Language                                 : Croatian
Default                                  : No
Forced                                   : No

Text #26
ID                                       : 29
Format                                   : UTF-8
Codec ID                                 : S_TEXT/UTF8
Codec ID/Info                            : UTF-8 Plain Text
Duration                                 : 16 min 20 s
Bit rate                                 : 43 b/s
Frame rate                               : 0.202 FPS
Count of elements                        : 198
Stream size                              : 5.26 KiB (0%)
Title                                    : Croatian
Language                                 : Croatian
Default                                  : No
Forced                                   : No

Text #27
ID                                       : 30
Format                                   : UTF-8
Codec ID                                 : S_TEXT/UTF8
Codec ID/Info                            : UTF-8 Plain Text
Duration                                 : 16 min 20 s
Bit rate                                 : 52 b/s
Frame rate                               : 0.202 FPS
Count of elements                        : 198
Stream size                              : 6.30 KiB (0%)
Title                                    : Hungarian
Language                                 : Hungarian
Default                                  : No
Forced                                   : No

Text #28
ID                                       : 31
Format                                   : UTF-8
Codec ID                                 : S_TEXT/UTF8
Codec ID/Info                            : UTF-8 Plain Text
Duration                                 : 14 min 9 s
Bit rate                                 : 63 b/s
Frame rate                               : 0.213 FPS
Count of elements                        : 181
Stream size                              : 6.57 KiB (0%)
Title                                    : Hungarian
Language                                 : Hungarian
Default                                  : No
Forced                                   : No

Text #29
ID                                       : 32
Format                                   : UTF-8
Codec ID                                 : S_TEXT/UTF8
Codec ID/Info                            : UTF-8 Plain Text
Duration                                 : 16 min 20 s
Bit rate                                 : 50 b/s
Frame rate                               : 0.203 FPS
Count of elements                        : 199
Stream size                              : 6.09 KiB (0%)
Title                                    : Indonesian
Language                                 : Indonesian
Default                                  : No
Forced                                   : No

Text #30
ID                                       : 33
Format                                   : UTF-8
Codec ID                                 : S_TEXT/UTF8
Codec ID/Info                            : UTF-8 Plain Text
Duration                                 : 14 min 9 s
Bit rate                                 : 59 b/s
Frame rate                               : 0.212 FPS
Count of elements                        : 180
Stream size                              : 6.13 KiB (0%)
Title                                    : Indonesian
Language                                 : Indonesian
Default                                  : No
Forced                                   : No

Text #31
ID                                       : 34
Format                                   : UTF-8
Codec ID                                 : S_TEXT/UTF8
Codec ID/Info                            : UTF-8 Plain Text
Duration                                 : 14 min 15 s
Bit rate                                 : 64 b/s
Frame rate                               : 0.290 FPS
Count of elements                        : 248
Stream size                              : 6.70 KiB (0%)
Title                                    : Italian
Language                                 : Italian
Default                                  : No
Forced                                   : No

Text #32
ID                                       : 35
Format                                   : UTF-8
Codec ID                                 : S_TEXT/UTF8
Codec ID/Info                            : UTF-8 Plain Text
Duration                                 : 16 min 20 s
Bit rate                                 : 47 b/s
Frame rate                               : 0.202 FPS
Count of elements                        : 198
Stream size                              : 5.68 KiB (0%)
Title                                    : Italian
Language                                 : Italian
Default                                  : No
Forced                                   : No

Text #33
ID                                       : 36
Format                                   : UTF-8
Codec ID                                 : S_TEXT/UTF8
Codec ID/Info                            : UTF-8 Plain Text
Duration                                 : 16 min 6 s
Bit rate                                 : 81 b/s
Frame rate                               : 0.283 FPS
Count of elements                        : 274
Stream size                              : 9.56 KiB (0%)
Title                                    : Japanese (SDH)
Language                                 : Japanese
Default                                  : No
Forced                                   : No

Text #34
ID                                       : 37
Format                                   : UTF-8
Codec ID                                 : S_TEXT/UTF8
Codec ID/Info                            : UTF-8 Plain Text
Duration                                 : 14 min 9 s
Bit rate                                 : 61 b/s
Frame rate                               : 0.235 FPS
Count of elements                        : 200
Stream size                              : 6.33 KiB (0%)
Title                                    : Korean
Language                                 : Korean
Default                                  : No
Forced                                   : No

Text #35
ID                                       : 38
Format                                   : UTF-8
Codec ID                                 : S_TEXT/UTF8
Codec ID/Info                            : UTF-8 Plain Text
Duration                                 : 14 min 9 s
Bit rate                                 : 69 b/s
Frame rate                               : 0.326 FPS
Count of elements                        : 277
Stream size                              : 7.18 KiB (0%)
Title                                    : Korean
Language                                 : Korean
Default                                  : No
Forced                                   : No

Text #36
ID                                       : 39
Format                                   : UTF-8
Codec ID                                 : S_TEXT/UTF8
Codec ID/Info                            : UTF-8 Plain Text
Duration                                 : 16 min 20 s
Bit rate                                 : 52 b/s
Frame rate                               : 0.202 FPS
Count of elements                        : 198
Stream size                              : 6.34 KiB (0%)
Title                                    : Malay
Language                                 : Malay
Default                                  : No
Forced                                   : No

Text #37
ID                                       : 40
Format                                   : UTF-8
Codec ID                                 : S_TEXT/UTF8
Codec ID/Info                            : UTF-8 Plain Text
Duration                                 : 14 min 9 s
Bit rate                                 : 61 b/s
Frame rate                               : 0.212 FPS
Count of elements                        : 180
Stream size                              : 6.37 KiB (0%)
Title                                    : Malay
Language                                 : Malay
Default                                  : No
Forced                                   : No

Text #38
ID                                       : 41
Format                                   : UTF-8
Codec ID                                 : S_TEXT/UTF8
Codec ID/Info                            : UTF-8 Plain Text
Duration                                 : 14 min 9 s
Bit rate                                 : 69 b/s
Frame rate                               : 0.218 FPS
Count of elements                        : 185
Stream size                              : 7.18 KiB (0%)
Title                                    : Norwegian Bokmal
Language                                 : Norwegian Bokmal
Default                                  : No
Forced                                   : No

Text #39
ID                                       : 42
Format                                   : UTF-8
Codec ID                                 : S_TEXT/UTF8
Codec ID/Info                            : UTF-8 Plain Text
Duration                                 : 16 min 20 s
Bit rate                                 : 51 b/s
Frame rate                               : 0.204 FPS
Count of elements                        : 200
Stream size                              : 6.14 KiB (0%)
Title                                    : Norwegian Bokmal
Language                                 : Norwegian Bokmal
Default                                  : No
Forced                                   : No

Text #40
ID                                       : 43
Format                                   : UTF-8
Codec ID                                 : S_TEXT/UTF8
Codec ID/Info                            : UTF-8 Plain Text
Duration                                 : 16 min 20 s
Bit rate                                 : 46 b/s
Frame rate                               : 0.204 FPS
Count of elements                        : 200
Stream size                              : 5.57 KiB (0%)
Title                                    : Dutch
Language                                 : Dutch
Default                                  : No
Forced                                   : No

Text #41
ID                                       : 44
Format                                   : UTF-8
Codec ID                                 : S_TEXT/UTF8
Codec ID/Info                            : UTF-8 Plain Text
Duration                                 : 14 min 9 s
Bit rate                                 : 65 b/s
Frame rate                               : 0.210 FPS
Count of elements                        : 178
Stream size                              : 6.78 KiB (0%)
Title                                    : Dutch
Language                                 : Dutch
Default                                  : No
Forced                                   : No

Text #42
ID                                       : 45
Format                                   : UTF-8
Codec ID                                 : S_TEXT/UTF8
Codec ID/Info                            : UTF-8 Plain Text
Duration                                 : 16 min 20 s
Bit rate                                 : 46 b/s
Frame rate                               : 0.204 FPS
Count of elements                        : 200
Stream size                              : 5.56 KiB (0%)
Title                                    : Polish
Language                                 : Polish
Default                                  : No
Forced                                   : No

Text #43
ID                                       : 46
Format                                   : UTF-8
Codec ID                                 : S_TEXT/UTF8
Codec ID/Info                            : UTF-8 Plain Text
Duration                                 : 14 min 9 s
Bit rate                                 : 65 b/s
Frame rate                               : 0.215 FPS
Count of elements                        : 183
Stream size                              : 6.83 KiB (0%)
Title                                    : Portuguese
Language                                 : Portuguese
Default                                  : No
Forced                                   : No

Text #44
ID                                       : 47
Format                                   : UTF-8
Codec ID                                 : S_TEXT/UTF8
Codec ID/Info                            : UTF-8 Plain Text
Duration                                 : 16 min 20 s
Bit rate                                 : 53 b/s
Frame rate                               : 0.204 FPS
Count of elements                        : 200
Stream size                              : 6.37 KiB (0%)
Title                                    : Portuguese
Language                                 : Portuguese
Default                                  : No
Forced                                   : No

Text #45
ID                                       : 48
Format                                   : UTF-8
Codec ID                                 : S_TEXT/UTF8
Codec ID/Info                            : UTF-8 Plain Text
Duration                                 : 16 min 20 s
Bit rate                                 : 46 b/s
Frame rate                               : 0.202 FPS
Count of elements                        : 198
Stream size                              : 5.60 KiB (0%)
Title                                    : Brazilian Portuguese
Language                                 : Portuguese (BR)
Default                                  : No
Forced                                   : No

Text #46
ID                                       : 49
Format                                   : UTF-8
Codec ID                                 : S_TEXT/UTF8
Codec ID/Info                            : UTF-8 Plain Text
Duration                                 : 14 min 9 s
Bit rate                                 : 64 b/s
Frame rate                               : 0.212 FPS
Count of elements                        : 180
Stream size                              : 6.68 KiB (0%)
Title                                    : Brazilian Portuguese
Language                                 : Portuguese (BR)
Default                                  : No
Forced                                   : No

Text #47
ID                                       : 50
Format                                   : UTF-8
Codec ID                                 : S_TEXT/UTF8
Codec ID/Info                            : UTF-8 Plain Text
Duration                                 : 14 min 15 s
Bit rate                                 : 62 b/s
Frame rate                               : 0.208 FPS
Count of elements                        : 178
Stream size                              : 6.52 KiB (0%)
Title                                    : Romanian
Language                                 : Romanian
Default                                  : No
Forced                                   : No

Text #48
ID                                       : 51
Format                                   : UTF-8
Codec ID                                 : S_TEXT/UTF8
Codec ID/Info                            : UTF-8 Plain Text
Duration                                 : 16 min 20 s
Bit rate                                 : 52 b/s
Frame rate                               : 0.202 FPS
Count of elements                        : 198
Stream size                              : 6.32 KiB (0%)
Title                                    : Romanian
Language                                 : Romanian
Default                                  : No
Forced                                   : No

Text #49
ID                                       : 52
Format                                   : UTF-8
Codec ID                                 : S_TEXT/UTF8
Codec ID/Info                            : UTF-8 Plain Text
Duration                                 : 16 min 20 s
Bit rate                                 : 84 b/s
Frame rate                               : 0.204 FPS
Count of elements                        : 200
Stream size                              : 10.1 KiB (0%)
Title                                    : Russian
Language                                 : Russian
Default                                  : No
Forced                                   : No

Text #50
ID                                       : 53
Format                                   : UTF-8
Codec ID                                 : S_TEXT/UTF8
Codec ID/Info                            : UTF-8 Plain Text
Duration                                 : 14 min 6 s
Bit rate                                 : 65 b/s
Frame rate                               : 0.228 FPS
Count of elements                        : 193
Stream size                              : 6.75 KiB (0%)
Title                                    : Swedish
Language                                 : Swedish
Default                                  : No
Forced                                   : No

Text #51
ID                                       : 54
Format                                   : UTF-8
Codec ID                                 : S_TEXT/UTF8
Codec ID/Info                            : UTF-8 Plain Text
Duration                                 : 16 min 20 s
Bit rate                                 : 51 b/s
Frame rate                               : 0.204 FPS
Count of elements                        : 200
Stream size                              : 6.11 KiB (0%)
Title                                    : Swedish
Language                                 : Swedish
Default                                  : No
Forced                                   : No

Text #52
ID                                       : 55
Format                                   : UTF-8
Codec ID                                 : S_TEXT/UTF8
Codec ID/Info                            : UTF-8 Plain Text
Duration                                 : 4 min 55 s
Bit rate                                 : 3 b/s
Frame rate                               : 0.007 FPS
Count of elements                        : 2
Stream size                              : 128 Bytes (0%)
Title                                    : Tamil (Forced)
Language                                 : Tamil
Default                                  : No
Forced                                   : Yes

Text #53
ID                                       : 56
Format                                   : UTF-8
Codec ID                                 : S_TEXT/UTF8
Codec ID/Info                            : UTF-8 Plain Text
Duration                                 : 5 min 50 s
Bit rate                                 : 3 b/s
Frame rate                               : 0.009 FPS
Count of elements                        : 3
Stream size                              : 136 Bytes (0%)
Title                                    : Telugu (Forced)
Language                                 : Telugu
Default                                  : No
Forced                                   : Yes

Text #54
ID                                       : 57
Format                                   : UTF-8
Codec ID                                 : S_TEXT/UTF8
Codec ID/Info                            : UTF-8 Plain Text
Duration                                 : 16 min 20 s
Bit rate                                 : 117 b/s
Frame rate                               : 0.203 FPS
Count of elements                        : 199
Stream size                              : 14.1 KiB (0%)
Title                                    : Thai
Language                                 : Thai
Default                                  : No
Forced                                   : No

Text #55
ID                                       : 58
Format                                   : UTF-8
Codec ID                                 : S_TEXT/UTF8
Codec ID/Info                            : UTF-8 Plain Text
Duration                                 : 14 min 8 s
Bit rate                                 : 151 b/s
Frame rate                               : 0.277 FPS
Count of elements                        : 235
Stream size                              : 15.7 KiB (0%)
Title                                    : Thai
Language                                 : Thai
Default                                  : No
Forced                                   : No

Text #56
ID                                       : 59
Format                                   : UTF-8
Codec ID                                 : S_TEXT/UTF8
Codec ID/Info                            : UTF-8 Plain Text
Duration                                 : 16 min 20 s
Bit rate                                 : 53 b/s
Frame rate                               : 0.204 FPS
Count of elements                        : 200
Stream size                              : 6.40 KiB (0%)
Title                                    : Turkish
Language                                 : Turkish
Default                                  : No
Forced                                   : No

Text #57
ID                                       : 60
Format                                   : UTF-8
Codec ID                                 : S_TEXT/UTF8
Codec ID/Info                            : UTF-8 Plain Text
Duration                                 : 14 min 10 s
Bit rate                                 : 63 b/s
Frame rate                               : 0.219 FPS
Count of elements                        : 186
Stream size                              : 6.55 KiB (0%)
Title                                    : Turkish
Language                                 : Turkish
Default                                  : No
Forced                                   : No

Text #58
ID                                       : 61
Format                                   : UTF-8
Codec ID                                 : S_TEXT/UTF8
Codec ID/Info                            : UTF-8 Plain Text
Duration                                 : 16 min 20 s
Bit rate                                 : 86 b/s
Frame rate                               : 0.204 FPS
Count of elements                        : 200
Stream size                              : 10.3 KiB (0%)
Title                                    : Ukrainian
Language                                 : Ukrainian
Default                                  : No
Forced                                   : No

Text #59
ID                                       : 62
Format                                   : UTF-8
Codec ID                                 : S_TEXT/UTF8
Codec ID/Info                            : UTF-8 Plain Text
Duration                                 : 14 min 9 s
Bit rate                                 : 100 b/s
Frame rate                               : 0.210 FPS
Count of elements                        : 178
Stream size                              : 10.4 KiB (0%)
Title                                    : Ukrainian
Language                                 : Ukrainian
Default                                  : No
Forced                                   : No

Text #60
ID                                       : 63
Format                                   : UTF-8
Codec ID                                 : S_TEXT/UTF8
Codec ID/Info                            : UTF-8 Plain Text
Duration                                 : 16 min 20 s
Bit rate                                 : 65 b/s
Frame rate                               : 0.201 FPS
Count of elements                        : 197
Stream size                              : 7.84 KiB (0%)
Title                                    : Vietnamese
Language                                 : Vietnamese
Default                                  : No
Forced                                   : No

Text #61
ID                                       : 64
Format                                   : UTF-8
Codec ID                                 : S_TEXT/UTF8
Codec ID/Info                            : UTF-8 Plain Text
Duration                                 : 14 min 9 s
Bit rate                                 : 94 b/s
Frame rate                               : 0.221 FPS
Count of elements                        : 188
Stream size                              : 9.79 KiB (0%)
Title                                    : Vietnamese
Language                                 : Vietnamese
Default                                  : No
Forced                                   : No

Text #62
ID                                       : 65
Format                                   : UTF-8
Codec ID                                 : S_TEXT/UTF8
Codec ID/Info                            : UTF-8 Plain Text
Duration                                 : 14 min 9 s
Bit rate                                 : 55 b/s
Frame rate                               : 0.235 FPS
Count of elements                        : 200
Stream size                              : 5.73 KiB (0%)
Title                                    : Chinese Simplified
Language                                 : Chinese (Simplified)
Default                                  : No
Forced                                   : No

Text #63
ID                                       : 66
Format                                   : UTF-8
Codec ID                                 : S_TEXT/UTF8
Codec ID/Info                            : UTF-8 Plain Text
Duration                                 : 14 min 14 s
Bit rate                                 : 58 b/s
Frame rate                               : 0.211 FPS
Count of elements                        : 180
Stream size                              : 6.10 KiB (0%)
Title                                    : Chinese Traditional
Language                                 : Chinese (Traditional)
Default                                  : No
Forced                                   : No

Text #64
ID                                       : 67
Format                                   : UTF-8
Codec ID                                 : S_TEXT/UTF8
Codec ID/Info                            : UTF-8 Plain Text
Duration                                 : 14 min 9 s
Bit rate                                 : 57 b/s
Frame rate                               : 0.235 FPS
Count of elements                        : 200
Stream size                              : 5.98 KiB (0%)
Title                                    : Chinese Traditional
Language                                 : Chinese (Traditional)
Default                                  : No
Forced                                   : No

Menu
00:00:00.000                             : en:Part 01
00:14:29.450                             : en:Credits

Other Files in this Torrent
Pokemon Concierge S01E01 Im Haru the New Concierge [1080p AV1][Netflix WEB-DL].mkv
beta
Anime DDL+NZB mirror
Current Time: 13/07/2024 01:05



About/FAQs

Discord