Pokemon Concierge S01E02 Whats on Your Mind Psyduck [1080p AV1][Netflix WEB-DL].mkv


File Size195.1 MB (204,618,695 bytes)
DownloadClickNUpload | DailyUploads | GoFile | KrakenFiles | MdiaLoad | MultiUp
  • BdUpload
  • DownAce
  • Fichier
  • FileCloud
  • Filerio
  • FilesCdn
  • IndiShare
  • Kbagi
  • Turbobit
  • UpToBox
  • Uppit
| Uppit
HashesCRC32: 98675818, MD5: C9960EE6609B00B4A1203133AFA2240F, SHA1: F0C93AD732BB06B1C41B17DD3BDFECC6F0321C68, SHA256: EF680E45F479044076E8931A8ABBFA9C3209318ACCC3F962954821A7045DBB63, ED2K: 5949A0063FB60BB386C647F3D5829E96
Screenshots
screenshotscreenshotscreenshotscreenshotscreenshot
SubtitlesAll Attachments | English (SDH) [eng, SRT], English [eng, SRT], English [eng, SRT], Arabic [ara, SRT], Czech [cze, SRT], Czech [cze, SRT], Danish [dan, SRT], Danish [dan, SRT], German (SDH) [ger, SRT], German [ger, SRT], German [ger, SRT], Greek [gre, SRT], Greek [gre, SRT], Spanish (SDH) [spa, SRT], Spanish [spa, SRT], Spanish [spa, SRT], European Spanish [spa, SRT], European Spanish [spa, SRT], Finnish [fin, SRT], Finnish [fin, SRT], Filipino [fil, SRT], French (SDH) [fre, SRT], French [fre, SRT], French [fre, SRT], Hebrew [heb, SRT], Croatian [hrv, SRT], Croatian [hrv, SRT], Hungarian [hun, SRT], Hungarian [hun, SRT], Indonesian [ind, SRT], Indonesian [ind, SRT], Italian [ita, SRT], Italian [ita, SRT], Japanese (SDH) [jpn, SRT], Korean [kor, SRT], Korean [kor, SRT], Malay [may, SRT], Malay [may, SRT], Norwegian Bokmal [nob, SRT], Norwegian Bokmal [nob, SRT], Dutch [dut, SRT], Dutch [dut, SRT], Polish [pol, SRT], Portuguese [por, SRT], Portuguese [por, SRT], Brazilian Portuguese [por, SRT], Brazilian Portuguese [por, SRT], Romanian [rum, SRT], Romanian [rum, SRT], Russian [rus, SRT], Swedish [swe, SRT], Swedish [swe, SRT], Tamil (Forced) [tam, SRT], Telugu (Forced) [tel, SRT], Thai [tha, SRT], Thai [tha, SRT], Turkish [tur, SRT], Turkish [tur, SRT], Ukrainian [ukr, SRT], Ukrainian [ukr, SRT], Vietnamese [vie, SRT], Vietnamese [vie, SRT], Chinese Simplified [chi, SRT], Chinese Traditional [chi, SRT], Chinese Traditional [chi, SRT]
Additional Info
General
Unique ID                                : 257831086335371253983054021684876847118 (0xC1F8760291F8F511C752221FD95CA80E)
Complete name                            : Pokemon Concierge S01E02 Whats on Your Mind Psyduck [1080p AV1][Netflix WEB-DL].mkv
Format                                   : Matroska
Format version                           : Version 4
File size                                : 195 MiB
Duration                                 : 16 min 47 s
Overall bit rate                         : 1 626 kb/s
Frame rate                               : 24.000 FPS
Encoded date                             : 2024-04-30 13:11:47 UTC
Writing application                      : mkvmerge v72.0.0 ('Minuano (Six-eight)') 64-bit
Writing library                          : libebml v1.4.4 + libmatroska v1.7.1

Video
ID                                       : 1
Format                                   : AV1
Format/Info                              : AOMedia Video 1
Format profile                           : Main@L4.0
Codec ID                                 : V_AV1
Duration                                 : 16 min 46 s
Bit rate                                 : 1 233 kb/s
Width                                    : 1 920 pixels
Height                                   : 1 080 pixels
Display aspect ratio                     : 16:9
Frame rate mode                          : Constant
Frame rate                               : 24.000 FPS
Color space                              : YUV
Chroma subsampling                       : 4:2:0
Bit depth                                : 10 bits
Bits/(Pixel*Frame)                       : 0.025
Stream size                              : 148 MiB (76%)
Default                                  : Yes
Forced                                   : No
Color range                              : Limited

Audio #1
ID                                       : 2
Format                                   : AAC LC SBR
Format/Info                              : Advanced Audio Codec Low Complexity with Spectral Band Replication
Commercial name                          : HE-AAC
Format settings                          : Explicit
Codec ID                                 : A_AAC-2
Duration                                 : 16 min 47 s
Bit rate                                 : 192 kb/s
Channel(s)                               : 6 channels
Channel layout                           : C L R Ls Rs LFE
Sampling rate                            : 48.0 kHz
Frame rate                               : 23.438 FPS (2048 SPF)
Compression mode                         : Lossy
Stream size                              : 23.0 MiB (12%)
Title                                    : Japanese
Language                                 : Japanese
Default                                  : Yes
Forced                                   : No

Audio #2
ID                                       : 3
Format                                   : AAC LC SBR
Format/Info                              : Advanced Audio Codec Low Complexity with Spectral Band Replication
Commercial name                          : HE-AAC
Format settings                          : Explicit
Codec ID                                 : A_AAC-2
Duration                                 : 16 min 47 s
Bit rate                                 : 192 kb/s
Channel(s)                               : 6 channels
Channel layout                           : C L R Ls Rs LFE
Sampling rate                            : 48.0 kHz
Frame rate                               : 23.438 FPS (2048 SPF)
Compression mode                         : Lossy
Stream size                              : 23.0 MiB (12%)
Title                                    : English
Language                                 : English
Default                                  : No
Forced                                   : No

Text #1
ID                                       : 4
Format                                   : UTF-8
Codec ID                                 : S_TEXT/UTF8
Codec ID/Info                            : UTF-8 Plain Text
Duration                                 : 13 min 20 s
Bit rate                                 : 72 b/s
Frame rate                               : 0.300 FPS
Count of elements                        : 240
Stream size                              : 7.13 KiB (0%)
Title                                    : English (SDH)
Language                                 : English
Default                                  : No
Forced                                   : No

Text #2
ID                                       : 5
Format                                   : UTF-8
Codec ID                                 : S_TEXT/UTF8
Codec ID/Info                            : UTF-8 Plain Text
Duration                                 : 11 min 24 s
Bit rate                                 : 62 b/s
Frame rate                               : 0.246 FPS
Count of elements                        : 168
Stream size                              : 5.25 KiB (0%)
Title                                    : English
Language                                 : English
Default                                  : No
Forced                                   : No

Text #3
ID                                       : 6
Format                                   : UTF-8
Codec ID                                 : S_TEXT/UTF8
Codec ID/Info                            : UTF-8 Plain Text
Duration                                 : 11 min 24 s
Bit rate                                 : 59 b/s
Frame rate                               : 0.213 FPS
Count of elements                        : 146
Stream size                              : 4.98 KiB (0%)
Title                                    : English
Language                                 : English
Default                                  : Yes
Forced                                   : No

Text #4
ID                                       : 7
Format                                   : UTF-8
Codec ID                                 : S_TEXT/UTF8
Codec ID/Info                            : UTF-8 Plain Text
Duration                                 : 13 min 34 s
Bit rate                                 : 79 b/s
Frame rate                               : 0.183 FPS
Count of elements                        : 149
Stream size                              : 7.92 KiB (0%)
Title                                    : Arabic
Language                                 : Arabic
Default                                  : No
Forced                                   : No

Text #5
ID                                       : 8
Format                                   : UTF-8
Codec ID                                 : S_TEXT/UTF8
Codec ID/Info                            : UTF-8 Plain Text
Duration                                 : 11 min 24 s
Bit rate                                 : 55 b/s
Frame rate                               : 0.187 FPS
Count of elements                        : 128
Stream size                              : 4.64 KiB (0%)
Title                                    : Czech
Language                                 : Czech
Default                                  : No
Forced                                   : No

Text #6
ID                                       : 9
Format                                   : UTF-8
Codec ID                                 : S_TEXT/UTF8
Codec ID/Info                            : UTF-8 Plain Text
Duration                                 : 13 min 34 s
Bit rate                                 : 44 b/s
Frame rate                               : 0.183 FPS
Count of elements                        : 149
Stream size                              : 4.46 KiB (0%)
Title                                    : Czech
Language                                 : Czech
Default                                  : No
Forced                                   : No

Text #7
ID                                       : 10
Format                                   : UTF-8
Codec ID                                 : S_TEXT/UTF8
Codec ID/Info                            : UTF-8 Plain Text
Duration                                 : 13 min 18 s
Bit rate                                 : 48 b/s
Frame rate                               : 0.184 FPS
Count of elements                        : 147
Stream size                              : 4.73 KiB (0%)
Title                                    : Danish
Language                                 : Danish
Default                                  : No
Forced                                   : No

Text #8
ID                                       : 11
Format                                   : UTF-8
Codec ID                                 : S_TEXT/UTF8
Codec ID/Info                            : UTF-8 Plain Text
Duration                                 : 11 min 24 s
Bit rate                                 : 75 b/s
Frame rate                               : 0.174 FPS
Count of elements                        : 119
Stream size                              : 6.28 KiB (0%)
Title                                    : Danish
Language                                 : Danish
Default                                  : No
Forced                                   : No

Text #9
ID                                       : 12
Format                                   : UTF-8
Codec ID                                 : S_TEXT/UTF8
Codec ID/Info                            : UTF-8 Plain Text
Duration                                 : 11 min 37 s
Bit rate                                 : 90 b/s
Frame rate                               : 0.324 FPS
Count of elements                        : 226
Stream size                              : 7.71 KiB (0%)
Title                                    : German (SDH)
Language                                 : German
Default                                  : No
Forced                                   : No

Text #10
ID                                       : 13
Format                                   : UTF-8
Codec ID                                 : S_TEXT/UTF8
Codec ID/Info                            : UTF-8 Plain Text
Duration                                 : 13 min 34 s
Bit rate                                 : 51 b/s
Frame rate                               : 0.183 FPS
Count of elements                        : 149
Stream size                              : 5.15 KiB (0%)
Title                                    : German
Language                                 : German
Default                                  : No
Forced                                   : No

Text #11
ID                                       : 14
Format                                   : UTF-8
Codec ID                                 : S_TEXT/UTF8
Codec ID/Info                            : UTF-8 Plain Text
Duration                                 : 11 min 24 s
Bit rate                                 : 69 b/s
Frame rate                               : 0.232 FPS
Count of elements                        : 159
Stream size                              : 5.79 KiB (0%)
Title                                    : German
Language                                 : German
Default                                  : No
Forced                                   : No

Text #12
ID                                       : 15
Format                                   : UTF-8
Codec ID                                 : S_TEXT/UTF8
Codec ID/Info                            : UTF-8 Plain Text
Duration                                 : 11 min 24 s
Bit rate                                 : 99 b/s
Frame rate                               : 0.202 FPS
Count of elements                        : 138
Stream size                              : 8.32 KiB (0%)
Title                                    : Greek
Language                                 : Greek
Default                                  : No
Forced                                   : No

Text #13
ID                                       : 16
Format                                   : UTF-8
Codec ID                                 : S_TEXT/UTF8
Codec ID/Info                            : UTF-8 Plain Text
Duration                                 : 13 min 34 s
Bit rate                                 : 80 b/s
Frame rate                               : 0.183 FPS
Count of elements                        : 149
Stream size                              : 7.99 KiB (0%)
Title                                    : Greek
Language                                 : Greek
Default                                  : No
Forced                                   : No

Text #14
ID                                       : 17
Format                                   : UTF-8
Codec ID                                 : S_TEXT/UTF8
Codec ID/Info                            : UTF-8 Plain Text
Duration                                 : 13 min 40 s
Bit rate                                 : 60 b/s
Frame rate                               : 0.225 FPS
Count of elements                        : 185
Stream size                              : 6.05 KiB (0%)
Title                                    : Spanish (SDH)
Language                                 : Spanish
Default                                  : No
Forced                                   : No

Text #15
ID                                       : 18
Format                                   : UTF-8
Codec ID                                 : S_TEXT/UTF8
Codec ID/Info                            : UTF-8 Plain Text
Duration                                 : 13 min 34 s
Bit rate                                 : 53 b/s
Frame rate                               : 0.190 FPS
Count of elements                        : 155
Stream size                              : 5.35 KiB (0%)
Title                                    : Spanish
Language                                 : Spanish
Default                                  : No
Forced                                   : No

Text #16
ID                                       : 19
Format                                   : UTF-8
Codec ID                                 : S_TEXT/UTF8
Codec ID/Info                            : UTF-8 Plain Text
Duration                                 : 13 min 34 s
Bit rate                                 : 49 b/s
Frame rate                               : 0.183 FPS
Count of elements                        : 149
Stream size                              : 4.93 KiB (0%)
Title                                    : Spanish
Language                                 : Spanish
Default                                  : No
Forced                                   : No

Text #17
ID                                       : 20
Format                                   : UTF-8
Codec ID                                 : S_TEXT/UTF8
Codec ID/Info                            : UTF-8 Plain Text
Duration                                 : 13 min 34 s
Bit rate                                 : 45 b/s
Frame rate                               : 0.183 FPS
Count of elements                        : 149
Stream size                              : 4.56 KiB (0%)
Title                                    : European Spanish
Language                                 : Spanish (ES)
Default                                  : No
Forced                                   : No

Text #18
ID                                       : 21
Format                                   : UTF-8
Codec ID                                 : S_TEXT/UTF8
Codec ID/Info                            : UTF-8 Plain Text
Duration                                 : 11 min 24 s
Bit rate                                 : 57 b/s
Frame rate                               : 0.193 FPS
Count of elements                        : 132
Stream size                              : 4.79 KiB (0%)
Title                                    : European Spanish
Language                                 : Spanish (ES)
Default                                  : No
Forced                                   : No

Text #19
ID                                       : 22
Format                                   : UTF-8
Codec ID                                 : S_TEXT/UTF8
Codec ID/Info                            : UTF-8 Plain Text
Duration                                 : 13 min 34 s
Bit rate                                 : 43 b/s
Frame rate                               : 0.183 FPS
Count of elements                        : 149
Stream size                              : 4.34 KiB (0%)
Title                                    : Finnish
Language                                 : Finnish
Default                                  : No
Forced                                   : No

Text #20
ID                                       : 23
Format                                   : UTF-8
Codec ID                                 : S_TEXT/UTF8
Codec ID/Info                            : UTF-8 Plain Text
Duration                                 : 11 min 32 s
Bit rate                                 : 67 b/s
Frame rate                               : 0.253 FPS
Count of elements                        : 175
Stream size                              : 5.69 KiB (0%)
Title                                    : Finnish
Language                                 : Finnish
Default                                  : No
Forced                                   : No

Text #21
ID                                       : 24
Format                                   : UTF-8
Codec ID                                 : S_TEXT/UTF8
Codec ID/Info                            : UTF-8 Plain Text
Duration                                 : 13 min 34 s
Bit rate                                 : 50 b/s
Frame rate                               : 0.180 FPS
Count of elements                        : 147
Stream size                              : 5.05 KiB (0%)
Title                                    : Filipino
Language                                 : Filipino
Default                                  : No
Forced                                   : No

Text #22
ID                                       : 25
Format                                   : UTF-8
Codec ID                                 : S_TEXT/UTF8
Codec ID/Info                            : UTF-8 Plain Text
Duration                                 : 13 min 42 s
Bit rate                                 : 85 b/s
Frame rate                               : 0.337 FPS
Count of elements                        : 277
Stream size                              : 8.57 KiB (0%)
Title                                    : French (SDH)
Language                                 : French
Default                                  : No
Forced                                   : No

Text #23
ID                                       : 26
Format                                   : UTF-8
Codec ID                                 : S_TEXT/UTF8
Codec ID/Info                            : UTF-8 Plain Text
Duration                                 : 13 min 34 s
Bit rate                                 : 49 b/s
Frame rate                               : 0.183 FPS
Count of elements                        : 149
Stream size                              : 4.90 KiB (0%)
Title                                    : French
Language                                 : French
Default                                  : No
Forced                                   : No

Text #24
ID                                       : 27
Format                                   : UTF-8
Codec ID                                 : S_TEXT/UTF8
Codec ID/Info                            : UTF-8 Plain Text
Duration                                 : 13 min 34 s
Bit rate                                 : 64 b/s
Frame rate                               : 0.222 FPS
Count of elements                        : 181
Stream size                              : 6.42 KiB (0%)
Title                                    : French
Language                                 : French
Default                                  : No
Forced                                   : No

Text #25
ID                                       : 28
Format                                   : UTF-8
Codec ID                                 : S_TEXT/UTF8
Codec ID/Info                            : UTF-8 Plain Text
Duration                                 : 13 min 34 s
Bit rate                                 : 71 b/s
Frame rate                               : 0.183 FPS
Count of elements                        : 149
Stream size                              : 7.14 KiB (0%)
Title                                    : Hebrew
Language                                 : Hebrew
Default                                  : No
Forced                                   : No

Text #26
ID                                       : 29
Format                                   : UTF-8
Codec ID                                 : S_TEXT/UTF8
Codec ID/Info                            : UTF-8 Plain Text
Duration                                 : 11 min 24 s
Bit rate                                 : 47 b/s
Frame rate                               : 0.253 FPS
Count of elements                        : 173
Stream size                              : 4.00 KiB (0%)
Title                                    : Croatian
Language                                 : Croatian
Default                                  : No
Forced                                   : No

Text #27
ID                                       : 30
Format                                   : UTF-8
Codec ID                                 : S_TEXT/UTF8
Codec ID/Info                            : UTF-8 Plain Text
Duration                                 : 13 min 34 s
Bit rate                                 : 40 b/s
Frame rate                               : 0.180 FPS
Count of elements                        : 147
Stream size                              : 4.01 KiB (0%)
Title                                    : Croatian
Language                                 : Croatian
Default                                  : No
Forced                                   : No

Text #28
ID                                       : 31
Format                                   : UTF-8
Codec ID                                 : S_TEXT/UTF8
Codec ID/Info                            : UTF-8 Plain Text
Duration                                 : 13 min 34 s
Bit rate                                 : 47 b/s
Frame rate                               : 0.180 FPS
Count of elements                        : 147
Stream size                              : 4.74 KiB (0%)
Title                                    : Hungarian
Language                                 : Hungarian
Default                                  : No
Forced                                   : No

Text #29
ID                                       : 32
Format                                   : UTF-8
Codec ID                                 : S_TEXT/UTF8
Codec ID/Info                            : UTF-8 Plain Text
Duration                                 : 11 min 24 s
Bit rate                                 : 60 b/s
Frame rate                               : 0.197 FPS
Count of elements                        : 135
Stream size                              : 5.09 KiB (0%)
Title                                    : Hungarian
Language                                 : Hungarian
Default                                  : No
Forced                                   : No

Text #30
ID                                       : 33
Format                                   : UTF-8
Codec ID                                 : S_TEXT/UTF8
Codec ID/Info                            : UTF-8 Plain Text
Duration                                 : 13 min 34 s
Bit rate                                 : 45 b/s
Frame rate                               : 0.180 FPS
Count of elements                        : 147
Stream size                              : 4.57 KiB (0%)
Title                                    : Indonesian
Language                                 : Indonesian
Default                                  : No
Forced                                   : No

Text #31
ID                                       : 34
Format                                   : UTF-8
Codec ID                                 : S_TEXT/UTF8
Codec ID/Info                            : UTF-8 Plain Text
Duration                                 : 11 min 24 s
Bit rate                                 : 56 b/s
Frame rate                               : 0.192 FPS
Count of elements                        : 131
Stream size                              : 4.73 KiB (0%)
Title                                    : Indonesian
Language                                 : Indonesian
Default                                  : No
Forced                                   : No

Text #32
ID                                       : 35
Format                                   : UTF-8
Codec ID                                 : S_TEXT/UTF8
Codec ID/Info                            : UTF-8 Plain Text
Duration                                 : 11 min 31 s
Bit rate                                 : 59 b/s
Frame rate                               : 0.293 FPS
Count of elements                        : 203
Stream size                              : 5.04 KiB (0%)
Title                                    : Italian
Language                                 : Italian
Default                                  : No
Forced                                   : No

Text #33
ID                                       : 36
Format                                   : UTF-8
Codec ID                                 : S_TEXT/UTF8
Codec ID/Info                            : UTF-8 Plain Text
Duration                                 : 13 min 34 s
Bit rate                                 : 41 b/s
Frame rate                               : 0.182 FPS
Count of elements                        : 148
Stream size                              : 4.15 KiB (0%)
Title                                    : Italian
Language                                 : Italian
Default                                  : No
Forced                                   : No

Text #34
ID                                       : 37
Format                                   : UTF-8
Codec ID                                 : S_TEXT/UTF8
Codec ID/Info                            : UTF-8 Plain Text
Duration                                 : 13 min 21 s
Bit rate                                 : 83 b/s
Frame rate                               : 0.267 FPS
Count of elements                        : 214
Stream size                              : 8.19 KiB (0%)
Title                                    : Japanese (SDH)
Language                                 : Japanese
Default                                  : No
Forced                                   : No

Text #35
ID                                       : 38
Format                                   : UTF-8
Codec ID                                 : S_TEXT/UTF8
Codec ID/Info                            : UTF-8 Plain Text
Duration                                 : 11 min 24 s
Bit rate                                 : 60 b/s
Frame rate                               : 0.218 FPS
Count of elements                        : 149
Stream size                              : 5.02 KiB (0%)
Title                                    : Korean
Language                                 : Korean
Default                                  : No
Forced                                   : No

Text #36
ID                                       : 39
Format                                   : UTF-8
Codec ID                                 : S_TEXT/UTF8
Codec ID/Info                            : UTF-8 Plain Text
Duration                                 : 11 min 24 s
Bit rate                                 : 70 b/s
Frame rate                               : 0.352 FPS
Count of elements                        : 241
Stream size                              : 5.90 KiB (0%)
Title                                    : Korean
Language                                 : Korean
Default                                  : No
Forced                                   : No

Text #37
ID                                       : 40
Format                                   : UTF-8
Codec ID                                 : S_TEXT/UTF8
Codec ID/Info                            : UTF-8 Plain Text
Duration                                 : 13 min 34 s
Bit rate                                 : 48 b/s
Frame rate                               : 0.180 FPS
Count of elements                        : 147
Stream size                              : 4.80 KiB (0%)
Title                                    : Malay
Language                                 : Malay
Default                                  : No
Forced                                   : No

Text #38
ID                                       : 41
Format                                   : UTF-8
Codec ID                                 : S_TEXT/UTF8
Codec ID/Info                            : UTF-8 Plain Text
Duration                                 : 11 min 22 s
Bit rate                                 : 58 b/s
Frame rate                               : 0.192 FPS
Count of elements                        : 131
Stream size                              : 4.89 KiB (0%)
Title                                    : Malay
Language                                 : Malay
Default                                  : No
Forced                                   : No

Text #39
ID                                       : 42
Format                                   : UTF-8
Codec ID                                 : S_TEXT/UTF8
Codec ID/Info                            : UTF-8 Plain Text
Duration                                 : 11 min 24 s
Bit rate                                 : 64 b/s
Frame rate                               : 0.194 FPS
Count of elements                        : 133
Stream size                              : 5.43 KiB (0%)
Title                                    : Norwegian Bokmal
Language                                 : Norwegian Bokmal
Default                                  : No
Forced                                   : No

Text #40
ID                                       : 43
Format                                   : UTF-8
Codec ID                                 : S_TEXT/UTF8
Codec ID/Info                            : UTF-8 Plain Text
Duration                                 : 13 min 34 s
Bit rate                                 : 44 b/s
Frame rate                               : 0.183 FPS
Count of elements                        : 149
Stream size                              : 4.44 KiB (0%)
Title                                    : Norwegian Bokmal
Language                                 : Norwegian Bokmal
Default                                  : No
Forced                                   : No

Text #41
ID                                       : 44
Format                                   : UTF-8
Codec ID                                 : S_TEXT/UTF8
Codec ID/Info                            : UTF-8 Plain Text
Duration                                 : 13 min 34 s
Bit rate                                 : 44 b/s
Frame rate                               : 0.183 FPS
Count of elements                        : 149
Stream size                              : 4.41 KiB (0%)
Title                                    : Dutch
Language                                 : Dutch
Default                                  : No
Forced                                   : No

Text #42
ID                                       : 45
Format                                   : UTF-8
Codec ID                                 : S_TEXT/UTF8
Codec ID/Info                            : UTF-8 Plain Text
Duration                                 : 11 min 24 s
Bit rate                                 : 65 b/s
Frame rate                               : 0.199 FPS
Count of elements                        : 136
Stream size                              : 5.44 KiB (0%)
Title                                    : Dutch
Language                                 : Dutch
Default                                  : No
Forced                                   : No

Text #43
ID                                       : 46
Format                                   : UTF-8
Codec ID                                 : S_TEXT/UTF8
Codec ID/Info                            : UTF-8 Plain Text
Duration                                 : 13 min 34 s
Bit rate                                 : 41 b/s
Frame rate                               : 0.183 FPS
Count of elements                        : 149
Stream size                              : 4.12 KiB (0%)
Title                                    : Polish
Language                                 : Polish
Default                                  : No
Forced                                   : No

Text #44
ID                                       : 47
Format                                   : UTF-8
Codec ID                                 : S_TEXT/UTF8
Codec ID/Info                            : UTF-8 Plain Text
Duration                                 : 11 min 24 s
Bit rate                                 : 64 b/s
Frame rate                               : 0.199 FPS
Count of elements                        : 136
Stream size                              : 5.36 KiB (0%)
Title                                    : Portuguese
Language                                 : Portuguese
Default                                  : No
Forced                                   : No

Text #45
ID                                       : 48
Format                                   : UTF-8
Codec ID                                 : S_TEXT/UTF8
Codec ID/Info                            : UTF-8 Plain Text
Duration                                 : 13 min 34 s
Bit rate                                 : 47 b/s
Frame rate                               : 0.183 FPS
Count of elements                        : 149
Stream size                              : 4.72 KiB (0%)
Title                                    : Portuguese
Language                                 : Portuguese
Default                                  : No
Forced                                   : No

Text #46
ID                                       : 49
Format                                   : UTF-8
Codec ID                                 : S_TEXT/UTF8
Codec ID/Info                            : UTF-8 Plain Text
Duration                                 : 13 min 34 s
Bit rate                                 : 44 b/s
Frame rate                               : 0.185 FPS
Count of elements                        : 151
Stream size                              : 4.38 KiB (0%)
Title                                    : Brazilian Portuguese
Language                                 : Portuguese (BR)
Default                                  : No
Forced                                   : No

Text #47
ID                                       : 50
Format                                   : UTF-8
Codec ID                                 : S_TEXT/UTF8
Codec ID/Info                            : UTF-8 Plain Text
Duration                                 : 11 min 23 s
Bit rate                                 : 61 b/s
Frame rate                               : 0.190 FPS
Count of elements                        : 130
Stream size                              : 5.14 KiB (0%)
Title                                    : Brazilian Portuguese
Language                                 : Portuguese (BR)
Default                                  : No
Forced                                   : No

Text #48
ID                                       : 51
Format                                   : UTF-8
Codec ID                                 : S_TEXT/UTF8
Codec ID/Info                            : UTF-8 Plain Text
Duration                                 : 11 min 31 s
Bit rate                                 : 60 b/s
Frame rate                               : 0.195 FPS
Count of elements                        : 135
Stream size                              : 5.10 KiB (0%)
Title                                    : Romanian
Language                                 : Romanian
Default                                  : No
Forced                                   : No

Text #49
ID                                       : 52
Format                                   : UTF-8
Codec ID                                 : S_TEXT/UTF8
Codec ID/Info                            : UTF-8 Plain Text
Duration                                 : 13 min 34 s
Bit rate                                 : 45 b/s
Frame rate                               : 0.180 FPS
Count of elements                        : 147
Stream size                              : 4.56 KiB (0%)
Title                                    : Romanian
Language                                 : Romanian
Default                                  : No
Forced                                   : No

Text #50
ID                                       : 53
Format                                   : UTF-8
Codec ID                                 : S_TEXT/UTF8
Codec ID/Info                            : UTF-8 Plain Text
Duration                                 : 13 min 34 s
Bit rate                                 : 76 b/s
Frame rate                               : 0.183 FPS
Count of elements                        : 149
Stream size                              : 7.65 KiB (0%)
Title                                    : Russian
Language                                 : Russian
Default                                  : No
Forced                                   : No

Text #51
ID                                       : 54
Format                                   : UTF-8
Codec ID                                 : S_TEXT/UTF8
Codec ID/Info                            : UTF-8 Plain Text
Duration                                 : 11 min 24 s
Bit rate                                 : 62 b/s
Frame rate                               : 0.204 FPS
Count of elements                        : 140
Stream size                              : 5.23 KiB (0%)
Title                                    : Swedish
Language                                 : Swedish
Default                                  : No
Forced                                   : No

Text #52
ID                                       : 55
Format                                   : UTF-8
Codec ID                                 : S_TEXT/UTF8
Codec ID/Info                            : UTF-8 Plain Text
Duration                                 : 13 min 34 s
Bit rate                                 : 46 b/s
Frame rate                               : 0.183 FPS
Count of elements                        : 149
Stream size                              : 4.64 KiB (0%)
Title                                    : Swedish
Language                                 : Swedish
Default                                  : No
Forced                                   : No

Text #53
ID                                       : 56
Format                                   : UTF-8
Codec ID                                 : S_TEXT/UTF8
Codec ID/Info                            : UTF-8 Plain Text
Duration                                 : 4 min 6 s
Bit rate                                 : 3 b/s
Frame rate                               : 0.008 FPS
Count of elements                        : 2
Stream size                              : 122 Bytes (0%)
Title                                    : Tamil (Forced)
Language                                 : Tamil
Default                                  : No
Forced                                   : Yes

Text #54
ID                                       : 57
Format                                   : UTF-8
Codec ID                                 : S_TEXT/UTF8
Codec ID/Info                            : UTF-8 Plain Text
Duration                                 : 4 min 6 s
Bit rate                                 : 4 b/s
Frame rate                               : 0.008 FPS
Count of elements                        : 2
Stream size                              : 128 Bytes (0%)
Title                                    : Telugu (Forced)
Language                                 : Telugu
Default                                  : No
Forced                                   : Yes

Text #55
ID                                       : 58
Format                                   : UTF-8
Codec ID                                 : S_TEXT/UTF8
Codec ID/Info                            : UTF-8 Plain Text
Duration                                 : 13 min 34 s
Bit rate                                 : 107 b/s
Frame rate                               : 0.183 FPS
Count of elements                        : 149
Stream size                              : 10.7 KiB (0%)
Title                                    : Thai
Language                                 : Thai
Default                                  : No
Forced                                   : No

Text #56
ID                                       : 59
Format                                   : UTF-8
Codec ID                                 : S_TEXT/UTF8
Codec ID/Info                            : UTF-8 Plain Text
Duration                                 : 11 min 24 s
Bit rate                                 : 146 b/s
Frame rate                               : 0.336 FPS
Count of elements                        : 230
Stream size                              : 12.2 KiB (0%)
Title                                    : Thai
Language                                 : Thai
Default                                  : No
Forced                                   : No

Text #57
ID                                       : 60
Format                                   : UTF-8
Codec ID                                 : S_TEXT/UTF8
Codec ID/Info                            : UTF-8 Plain Text
Duration                                 : 13 min 34 s
Bit rate                                 : 48 b/s
Frame rate                               : 0.183 FPS
Count of elements                        : 149
Stream size                              : 4.86 KiB (0%)
Title                                    : Turkish
Language                                 : Turkish
Default                                  : No
Forced                                   : No

Text #58
ID                                       : 61
Format                                   : UTF-8
Codec ID                                 : S_TEXT/UTF8
Codec ID/Info                            : UTF-8 Plain Text
Duration                                 : 11 min 24 s
Bit rate                                 : 57 b/s
Frame rate                               : 0.187 FPS
Count of elements                        : 128
Stream size                              : 4.83 KiB (0%)
Title                                    : Turkish
Language                                 : Turkish
Default                                  : No
Forced                                   : No

Text #59
ID                                       : 62
Format                                   : UTF-8
Codec ID                                 : S_TEXT/UTF8
Codec ID/Info                            : UTF-8 Plain Text
Duration                                 : 13 min 34 s
Bit rate                                 : 78 b/s
Frame rate                               : 0.183 FPS
Count of elements                        : 149
Stream size                              : 7.82 KiB (0%)
Title                                    : Ukrainian
Language                                 : Ukrainian
Default                                  : No
Forced                                   : No

Text #60
ID                                       : 63
Format                                   : UTF-8
Codec ID                                 : S_TEXT/UTF8
Codec ID/Info                            : UTF-8 Plain Text
Duration                                 : 11 min 24 s
Bit rate                                 : 91 b/s
Frame rate                               : 0.187 FPS
Count of elements                        : 128
Stream size                              : 7.60 KiB (0%)
Title                                    : Ukrainian
Language                                 : Ukrainian
Default                                  : No
Forced                                   : No

Text #61
ID                                       : 64
Format                                   : UTF-8
Codec ID                                 : S_TEXT/UTF8
Codec ID/Info                            : UTF-8 Plain Text
Duration                                 : 13 min 34 s
Bit rate                                 : 57 b/s
Frame rate                               : 0.178 FPS
Count of elements                        : 145
Stream size                              : 5.67 KiB (0%)
Title                                    : Vietnamese
Language                                 : Vietnamese
Default                                  : No
Forced                                   : No

Text #62
ID                                       : 65
Format                                   : UTF-8
Codec ID                                 : S_TEXT/UTF8
Codec ID/Info                            : UTF-8 Plain Text
Duration                                 : 11 min 24 s
Bit rate                                 : 86 b/s
Frame rate                               : 0.202 FPS
Count of elements                        : 138
Stream size                              : 7.25 KiB (0%)
Title                                    : Vietnamese
Language                                 : Vietnamese
Default                                  : No
Forced                                   : No

Text #63
ID                                       : 66
Format                                   : UTF-8
Codec ID                                 : S_TEXT/UTF8
Codec ID/Info                            : UTF-8 Plain Text
Duration                                 : 11 min 24 s
Bit rate                                 : 53 b/s
Frame rate                               : 0.216 FPS
Count of elements                        : 148
Stream size                              : 4.50 KiB (0%)
Title                                    : Chinese Simplified
Language                                 : Chinese (Simplified)
Default                                  : No
Forced                                   : No

Text #64
ID                                       : 67
Format                                   : UTF-8
Codec ID                                 : S_TEXT/UTF8
Codec ID/Info                            : UTF-8 Plain Text
Duration                                 : 11 min 29 s
Bit rate                                 : 54 b/s
Frame rate                               : 0.199 FPS
Count of elements                        : 137
Stream size                              : 4.60 KiB (0%)
Title                                    : Chinese Traditional
Language                                 : Chinese (Traditional)
Default                                  : No
Forced                                   : No

Text #65
ID                                       : 68
Format                                   : UTF-8
Codec ID                                 : S_TEXT/UTF8
Codec ID/Info                            : UTF-8 Plain Text
Duration                                 : 11 min 24 s
Bit rate                                 : 56 b/s
Frame rate                               : 0.218 FPS
Count of elements                        : 149
Stream size                              : 4.74 KiB (0%)
Title                                    : Chinese Traditional
Language                                 : Chinese (Traditional)
Default                                  : No
Forced                                   : No

Menu
00:00:00.000                             : en:Part 01
00:11:43.450                             : en:Credits

Other Files in this Torrent
Pokemon Concierge S01E02 Whats on Your Mind Psyduck [1080p AV1][Netflix WEB-DL].mkv
beta
Anime DDL+NZB mirror
Current Time: 20/07/2024 03:24



About/FAQs

Discord