Pokemon Concierge S01E03 I Hope I Can Evolve Too [1080p AV1][Netflix WEB-DL].mkv


File Size191.7 MB (200,994,091 bytes)
DownloadClickNUpload | DailyUploads | GoFile | KrakenFiles | MdiaLoad | MultiUp
  • BdUpload
  • DownAce
  • Fichier
  • FileCloud
  • Filerio
  • FilesCdn
  • IndiShare
  • Kbagi
  • Turbobit
  • UpToBox
  • Uppit
| Uppit
HashesCRC32: 3807BAD0, MD5: A8D6DF0B6F4D139D17C998F8D0BEA333, SHA1: E3EB62273504112277F378E5D8B19D70167732F8, SHA256: 8BAD67F3F968C5F9A5627409CB764EB87AC23977A91F2B069B8D6934498F7E7F, ED2K: CFF930087AD9C2FC9F0E396F8CD9B196
Screenshots
screenshotscreenshotscreenshotscreenshotscreenshot
SubtitlesAll Attachments | English (SDH) [eng, SRT], English [eng, SRT], English [eng, SRT], Arabic [ara, SRT], Czech [cze, SRT], Czech [cze, SRT], Danish [dan, SRT], German (SDH) [ger, SRT], German [ger, SRT], German [ger, SRT], Greek [gre, SRT], Greek [gre, SRT], Spanish (SDH) [spa, SRT], Spanish [spa, SRT], Spanish [spa, SRT], European Spanish [spa, SRT], European Spanish [spa, SRT], Finnish [fin, SRT], Finnish [fin, SRT], Filipino [fil, SRT], French (SDH) [fre, SRT], French [fre, SRT], French [fre, SRT], Hebrew [heb, SRT], Croatian [hrv, SRT], Croatian [hrv, SRT], Hungarian [hun, SRT], Hungarian [hun, SRT], Indonesian [ind, SRT], Indonesian [ind, SRT], Italian [ita, SRT], Italian [ita, SRT], Japanese (SDH) [jpn, SRT], Korean [kor, SRT], Korean [kor, SRT], Malay [may, SRT], Malay [may, SRT], Norwegian Bokmal [nob, SRT], Norwegian Bokmal [nob, SRT], Dutch [dut, SRT], Dutch [dut, SRT], Polish [pol, SRT], Portuguese [por, SRT], Portuguese [por, SRT], Brazilian Portuguese [por, SRT], Brazilian Portuguese [por, SRT], Romanian [rum, SRT], Romanian [rum, SRT], Russian [rus, SRT], Swedish [swe, SRT], Swedish [swe, SRT], Tamil (Forced) [tam, SRT], Telugu (Forced) [tel, SRT], Thai [tha, SRT], Thai [tha, SRT], Turkish [tur, SRT], Turkish [tur, SRT], Ukrainian [ukr, SRT], Ukrainian [ukr, SRT], Vietnamese [vie, SRT], Vietnamese [vie, SRT], Chinese Simplified [chi, SRT], Chinese Traditional [chi, SRT], Chinese Traditional [chi, SRT]
Additional Info
General
Unique ID                                : 330251783036492539276896515504013995110 (0xF8742E0845B77E1F71CDC78FD7126C66)
Complete name                            : Pokemon Concierge S01E03 I Hope I Can Evolve Too [1080p AV1][Netflix WEB-DL].mkv
Format                                   : Matroska
Format version                           : Version 4
File size                                : 192 MiB
Duration                                 : 14 min 50 s
Overall bit rate                         : 1 805 kb/s
Frame rate                               : 24.000 FPS
Encoded date                             : 2024-04-30 13:11:49 UTC
Writing application                      : mkvmerge v72.0.0 ('Minuano (Six-eight)') 64-bit
Writing library                          : libebml v1.4.4 + libmatroska v1.7.1

Video
ID                                       : 1
Format                                   : AV1
Format/Info                              : AOMedia Video 1
Format profile                           : Main@L4.0
Codec ID                                 : V_AV1
Duration                                 : 14 min 50 s
Bit rate                                 : 1 414 kb/s
Width                                    : 1 920 pixels
Height                                   : 1 080 pixels
Display aspect ratio                     : 16:9
Frame rate mode                          : Constant
Frame rate                               : 24.000 FPS
Color space                              : YUV
Chroma subsampling                       : 4:2:0
Bit depth                                : 10 bits
Bits/(Pixel*Frame)                       : 0.028
Stream size                              : 150 MiB (78%)
Default                                  : Yes
Forced                                   : No
Color range                              : Limited

Audio #1
ID                                       : 2
Format                                   : AAC LC SBR
Format/Info                              : Advanced Audio Codec Low Complexity with Spectral Band Replication
Commercial name                          : HE-AAC
Format settings                          : Explicit
Codec ID                                 : A_AAC-2
Duration                                 : 14 min 50 s
Bit rate                                 : 192 kb/s
Channel(s)                               : 6 channels
Channel layout                           : C L R Ls Rs LFE
Sampling rate                            : 48.0 kHz
Frame rate                               : 23.438 FPS (2048 SPF)
Compression mode                         : Lossy
Stream size                              : 20.4 MiB (11%)
Title                                    : Japanese
Language                                 : Japanese
Default                                  : Yes
Forced                                   : No

Audio #2
ID                                       : 3
Format                                   : AAC LC SBR
Format/Info                              : Advanced Audio Codec Low Complexity with Spectral Band Replication
Commercial name                          : HE-AAC
Format settings                          : Explicit
Codec ID                                 : A_AAC-2
Duration                                 : 14 min 50 s
Bit rate                                 : 192 kb/s
Channel(s)                               : 6 channels
Channel layout                           : C L R Ls Rs LFE
Sampling rate                            : 48.0 kHz
Frame rate                               : 23.438 FPS (2048 SPF)
Compression mode                         : Lossy
Stream size                              : 20.4 MiB (11%)
Title                                    : English
Language                                 : English
Default                                  : No
Forced                                   : No

Text #1
ID                                       : 4
Format                                   : UTF-8
Codec ID                                 : S_TEXT/UTF8
Codec ID/Info                            : UTF-8 Plain Text
Duration                                 : 11 min 46 s
Bit rate                                 : 71 b/s
Frame rate                               : 0.294 FPS
Count of elements                        : 208
Stream size                              : 6.14 KiB (0%)
Title                                    : English (SDH)
Language                                 : English
Default                                  : No
Forced                                   : No

Text #2
ID                                       : 5
Format                                   : UTF-8
Codec ID                                 : S_TEXT/UTF8
Codec ID/Info                            : UTF-8 Plain Text
Duration                                 : 9 min 29 s
Bit rate                                 : 57 b/s
Frame rate                               : 0.223 FPS
Count of elements                        : 127
Stream size                              : 3.97 KiB (0%)
Title                                    : English
Language                                 : English
Default                                  : No
Forced                                   : No

Text #3
ID                                       : 6
Format                                   : UTF-8
Codec ID                                 : S_TEXT/UTF8
Codec ID/Info                            : UTF-8 Plain Text
Duration                                 : 9 min 29 s
Bit rate                                 : 52 b/s
Frame rate                               : 0.195 FPS
Count of elements                        : 111
Stream size                              : 3.67 KiB (0%)
Title                                    : English
Language                                 : English
Default                                  : Yes
Forced                                   : No

Text #4
ID                                       : 7
Format                                   : UTF-8
Codec ID                                 : S_TEXT/UTF8
Codec ID/Info                            : UTF-8 Plain Text
Duration                                 : 11 min 39 s
Bit rate                                 : 71 b/s
Frame rate                               : 0.163 FPS
Count of elements                        : 114
Stream size                              : 6.11 KiB (0%)
Title                                    : Arabic
Language                                 : Arabic
Default                                  : No
Forced                                   : No

Text #5
ID                                       : 8
Format                                   : UTF-8
Codec ID                                 : S_TEXT/UTF8
Codec ID/Info                            : UTF-8 Plain Text
Duration                                 : 9 min 29 s
Bit rate                                 : 49 b/s
Frame rate                               : 0.176 FPS
Count of elements                        : 100
Stream size                              : 3.45 KiB (0%)
Title                                    : Czech
Language                                 : Czech
Default                                  : No
Forced                                   : No

Text #6
ID                                       : 9
Format                                   : UTF-8
Codec ID                                 : S_TEXT/UTF8
Codec ID/Info                            : UTF-8 Plain Text
Duration                                 : 11 min 39 s
Bit rate                                 : 38 b/s
Frame rate                               : 0.163 FPS
Count of elements                        : 114
Stream size                              : 3.31 KiB (0%)
Title                                    : Czech
Language                                 : Czech
Default                                  : No
Forced                                   : No

Text #7
ID                                       : 10
Format                                   : UTF-8
Codec ID                                 : S_TEXT/UTF8
Codec ID/Info                            : UTF-8 Plain Text
Duration                                 : 11 min 23 s
Bit rate                                 : 42 b/s
Frame rate                               : 0.164 FPS
Count of elements                        : 112
Stream size                              : 3.56 KiB (0%)
Title                                    : Danish
Language                                 : Danish
Default                                  : No
Forced                                   : No

Text #8
ID                                       : 11
Format                                   : UTF-8
Codec ID                                 : S_TEXT/UTF8
Codec ID/Info                            : UTF-8 Plain Text
Duration                                 : 10 min 2 s
Bit rate                                 : 84 b/s
Frame rate                               : 0.322 FPS
Count of elements                        : 194
Stream size                              : 6.23 KiB (0%)
Title                                    : German (SDH)
Language                                 : German
Default                                  : No
Forced                                   : No

Text #9
ID                                       : 12
Format                                   : UTF-8
Codec ID                                 : S_TEXT/UTF8
Codec ID/Info                            : UTF-8 Plain Text
Duration                                 : 11 min 39 s
Bit rate                                 : 44 b/s
Frame rate                               : 0.163 FPS
Count of elements                        : 114
Stream size                              : 3.77 KiB (0%)
Title                                    : German
Language                                 : German
Default                                  : No
Forced                                   : No

Text #10
ID                                       : 13
Format                                   : UTF-8
Codec ID                                 : S_TEXT/UTF8
Codec ID/Info                            : UTF-8 Plain Text
Duration                                 : 9 min 32 s
Bit rate                                 : 60 b/s
Frame rate                               : 0.204 FPS
Count of elements                        : 117
Stream size                              : 4.24 KiB (0%)
Title                                    : German
Language                                 : German
Default                                  : No
Forced                                   : No

Text #11
ID                                       : 14
Format                                   : UTF-8
Codec ID                                 : S_TEXT/UTF8
Codec ID/Info                            : UTF-8 Plain Text
Duration                                 : 9 min 29 s
Bit rate                                 : 90 b/s
Frame rate                               : 0.176 FPS
Count of elements                        : 100
Stream size                              : 6.31 KiB (0%)
Title                                    : Greek
Language                                 : Greek
Default                                  : No
Forced                                   : No

Text #12
ID                                       : 15
Format                                   : UTF-8
Codec ID                                 : S_TEXT/UTF8
Codec ID/Info                            : UTF-8 Plain Text
Duration                                 : 11 min 39 s
Bit rate                                 : 71 b/s
Frame rate                               : 0.163 FPS
Count of elements                        : 114
Stream size                              : 6.06 KiB (0%)
Title                                    : Greek
Language                                 : Greek
Default                                  : No
Forced                                   : No

Text #13
ID                                       : 16
Format                                   : UTF-8
Codec ID                                 : S_TEXT/UTF8
Codec ID/Info                            : UTF-8 Plain Text
Duration                                 : 12 min 6 s
Bit rate                                 : 57 b/s
Frame rate                               : 0.244 FPS
Count of elements                        : 177
Stream size                              : 5.06 KiB (0%)
Title                                    : Spanish (SDH)
Language                                 : Spanish
Default                                  : No
Forced                                   : No

Text #14
ID                                       : 17
Format                                   : UTF-8
Codec ID                                 : S_TEXT/UTF8
Codec ID/Info                            : UTF-8 Plain Text
Duration                                 : 11 min 39 s
Bit rate                                 : 47 b/s
Frame rate                               : 0.187 FPS
Count of elements                        : 131
Stream size                              : 4.02 KiB (0%)
Title                                    : Spanish
Language                                 : Spanish
Default                                  : No
Forced                                   : No

Text #15
ID                                       : 18
Format                                   : UTF-8
Codec ID                                 : S_TEXT/UTF8
Codec ID/Info                            : UTF-8 Plain Text
Duration                                 : 11 min 39 s
Bit rate                                 : 42 b/s
Frame rate                               : 0.162 FPS
Count of elements                        : 113
Stream size                              : 3.67 KiB (0%)
Title                                    : Spanish
Language                                 : Spanish
Default                                  : No
Forced                                   : No

Text #16
ID                                       : 19
Format                                   : UTF-8
Codec ID                                 : S_TEXT/UTF8
Codec ID/Info                            : UTF-8 Plain Text
Duration                                 : 11 min 39 s
Bit rate                                 : 40 b/s
Frame rate                               : 0.163 FPS
Count of elements                        : 114
Stream size                              : 3.47 KiB (0%)
Title                                    : European Spanish
Language                                 : Spanish (ES)
Default                                  : No
Forced                                   : No

Text #17
ID                                       : 20
Format                                   : UTF-8
Codec ID                                 : S_TEXT/UTF8
Codec ID/Info                            : UTF-8 Plain Text
Duration                                 : 9 min 29 s
Bit rate                                 : 52 b/s
Frame rate                               : 0.172 FPS
Count of elements                        : 98
Stream size                              : 3.62 KiB (0%)
Title                                    : European Spanish
Language                                 : Spanish (ES)
Default                                  : No
Forced                                   : No

Text #18
ID                                       : 21
Format                                   : UTF-8
Codec ID                                 : S_TEXT/UTF8
Codec ID/Info                            : UTF-8 Plain Text
Duration                                 : 11 min 39 s
Bit rate                                 : 41 b/s
Frame rate                               : 0.163 FPS
Count of elements                        : 114
Stream size                              : 3.52 KiB (0%)
Title                                    : Finnish
Language                                 : Finnish
Default                                  : No
Forced                                   : No

Text #19
ID                                       : 22
Format                                   : UTF-8
Codec ID                                 : S_TEXT/UTF8
Codec ID/Info                            : UTF-8 Plain Text
Duration                                 : 9 min 31 s
Bit rate                                 : 57 b/s
Frame rate                               : 0.224 FPS
Count of elements                        : 128
Stream size                              : 4.02 KiB (0%)
Title                                    : Finnish
Language                                 : Finnish
Default                                  : No
Forced                                   : No

Text #20
ID                                       : 23
Format                                   : UTF-8
Codec ID                                 : S_TEXT/UTF8
Codec ID/Info                            : UTF-8 Plain Text
Duration                                 : 11 min 39 s
Bit rate                                 : 43 b/s
Frame rate                               : 0.160 FPS
Count of elements                        : 112
Stream size                              : 3.72 KiB (0%)
Title                                    : Filipino
Language                                 : Filipino
Default                                  : No
Forced                                   : No

Text #21
ID                                       : 24
Format                                   : UTF-8
Codec ID                                 : S_TEXT/UTF8
Codec ID/Info                            : UTF-8 Plain Text
Duration                                 : 12 min 8 s
Bit rate                                 : 80 b/s
Frame rate                               : 0.321 FPS
Count of elements                        : 234
Stream size                              : 7.16 KiB (0%)
Title                                    : French (SDH)
Language                                 : French
Default                                  : No
Forced                                   : No

Text #22
ID                                       : 25
Format                                   : UTF-8
Codec ID                                 : S_TEXT/UTF8
Codec ID/Info                            : UTF-8 Plain Text
Duration                                 : 11 min 39 s
Bit rate                                 : 43 b/s
Frame rate                               : 0.163 FPS
Count of elements                        : 114
Stream size                              : 3.71 KiB (0%)
Title                                    : French
Language                                 : French
Default                                  : No
Forced                                   : No

Text #23
ID                                       : 26
Format                                   : UTF-8
Codec ID                                 : S_TEXT/UTF8
Codec ID/Info                            : UTF-8 Plain Text
Duration                                 : 11 min 40 s
Bit rate                                 : 56 b/s
Frame rate                               : 0.201 FPS
Count of elements                        : 141
Stream size                              : 4.83 KiB (0%)
Title                                    : French
Language                                 : French
Default                                  : No
Forced                                   : No

Text #24
ID                                       : 27
Format                                   : UTF-8
Codec ID                                 : S_TEXT/UTF8
Codec ID/Info                            : UTF-8 Plain Text
Duration                                 : 11 min 39 s
Bit rate                                 : 62 b/s
Frame rate                               : 0.163 FPS
Count of elements                        : 114
Stream size                              : 5.35 KiB (0%)
Title                                    : Hebrew
Language                                 : Hebrew
Default                                  : No
Forced                                   : No

Text #25
ID                                       : 28
Format                                   : UTF-8
Codec ID                                 : S_TEXT/UTF8
Codec ID/Info                            : UTF-8 Plain Text
Duration                                 : 9 min 30 s
Bit rate                                 : 41 b/s
Frame rate                               : 0.216 FPS
Count of elements                        : 123
Stream size                              : 2.90 KiB (0%)
Title                                    : Croatian
Language                                 : Croatian
Default                                  : No
Forced                                   : No

Text #26
ID                                       : 29
Format                                   : UTF-8
Codec ID                                 : S_TEXT/UTF8
Codec ID/Info                            : UTF-8 Plain Text
Duration                                 : 11 min 39 s
Bit rate                                 : 34 b/s
Frame rate                               : 0.160 FPS
Count of elements                        : 112
Stream size                              : 2.96 KiB (0%)
Title                                    : Croatian
Language                                 : Croatian
Default                                  : No
Forced                                   : No

Text #27
ID                                       : 30
Format                                   : UTF-8
Codec ID                                 : S_TEXT/UTF8
Codec ID/Info                            : UTF-8 Plain Text
Duration                                 : 11 min 39 s
Bit rate                                 : 41 b/s
Frame rate                               : 0.160 FPS
Count of elements                        : 112
Stream size                              : 3.52 KiB (0%)
Title                                    : Hungarian
Language                                 : Hungarian
Default                                  : No
Forced                                   : No

Text #28
ID                                       : 31
Format                                   : UTF-8
Codec ID                                 : S_TEXT/UTF8
Codec ID/Info                            : UTF-8 Plain Text
Duration                                 : 9 min 29 s
Bit rate                                 : 51 b/s
Frame rate                               : 0.174 FPS
Count of elements                        : 99
Stream size                              : 3.60 KiB (0%)
Title                                    : Hungarian
Language                                 : Hungarian
Default                                  : No
Forced                                   : No

Text #29
ID                                       : 32
Format                                   : UTF-8
Codec ID                                 : S_TEXT/UTF8
Codec ID/Info                            : UTF-8 Plain Text
Duration                                 : 11 min 39 s
Bit rate                                 : 42 b/s
Frame rate                               : 0.162 FPS
Count of elements                        : 113
Stream size                              : 3.60 KiB (0%)
Title                                    : Indonesian
Language                                 : Indonesian
Default                                  : No
Forced                                   : No

Text #30
ID                                       : 33
Format                                   : UTF-8
Codec ID                                 : S_TEXT/UTF8
Codec ID/Info                            : UTF-8 Plain Text
Duration                                 : 9 min 29 s
Bit rate                                 : 52 b/s
Frame rate                               : 0.181 FPS
Count of elements                        : 103
Stream size                              : 3.62 KiB (0%)
Title                                    : Indonesian
Language                                 : Indonesian
Default                                  : No
Forced                                   : No

Text #31
ID                                       : 34
Format                                   : UTF-8
Codec ID                                 : S_TEXT/UTF8
Codec ID/Info                            : UTF-8 Plain Text
Duration                                 : 9 min 57 s
Bit rate                                 : 50 b/s
Frame rate                               : 0.236 FPS
Count of elements                        : 141
Stream size                              : 3.67 KiB (0%)
Title                                    : Italian
Language                                 : Italian
Default                                  : No
Forced                                   : No

Text #32
ID                                       : 35
Format                                   : UTF-8
Codec ID                                 : S_TEXT/UTF8
Codec ID/Info                            : UTF-8 Plain Text
Duration                                 : 11 min 39 s
Bit rate                                 : 37 b/s
Frame rate                               : 0.163 FPS
Count of elements                        : 114
Stream size                              : 3.18 KiB (0%)
Title                                    : Italian
Language                                 : Italian
Default                                  : No
Forced                                   : No

Text #33
ID                                       : 36
Format                                   : UTF-8
Codec ID                                 : S_TEXT/UTF8
Codec ID/Info                            : UTF-8 Plain Text
Duration                                 : 11 min 48 s
Bit rate                                 : 82 b/s
Frame rate                               : 0.295 FPS
Count of elements                        : 209
Stream size                              : 7.10 KiB (0%)
Title                                    : Japanese (SDH)
Language                                 : Japanese
Default                                  : No
Forced                                   : No

Text #34
ID                                       : 37
Format                                   : UTF-8
Codec ID                                 : S_TEXT/UTF8
Codec ID/Info                            : UTF-8 Plain Text
Duration                                 : 9 min 29 s
Bit rate                                 : 52 b/s
Frame rate                               : 0.198 FPS
Count of elements                        : 113
Stream size                              : 3.67 KiB (0%)
Title                                    : Korean
Language                                 : Korean
Default                                  : No
Forced                                   : No

Text #35
ID                                       : 38
Format                                   : UTF-8
Codec ID                                 : S_TEXT/UTF8
Codec ID/Info                            : UTF-8 Plain Text
Duration                                 : 9 min 31 s
Bit rate                                 : 57 b/s
Frame rate                               : 0.285 FPS
Count of elements                        : 163
Stream size                              : 3.98 KiB (0%)
Title                                    : Korean
Language                                 : Korean
Default                                  : No
Forced                                   : No

Text #36
ID                                       : 39
Format                                   : UTF-8
Codec ID                                 : S_TEXT/UTF8
Codec ID/Info                            : UTF-8 Plain Text
Duration                                 : 11 min 39 s
Bit rate                                 : 41 b/s
Frame rate                               : 0.160 FPS
Count of elements                        : 112
Stream size                              : 3.57 KiB (0%)
Title                                    : Malay
Language                                 : Malay
Default                                  : No
Forced                                   : No

Text #37
ID                                       : 40
Format                                   : UTF-8
Codec ID                                 : S_TEXT/UTF8
Codec ID/Info                            : UTF-8 Plain Text
Duration                                 : 9 min 29 s
Bit rate                                 : 51 b/s
Frame rate                               : 0.177 FPS
Count of elements                        : 101
Stream size                              : 3.57 KiB (0%)
Title                                    : Malay
Language                                 : Malay
Default                                  : No
Forced                                   : No

Text #38
ID                                       : 41
Format                                   : UTF-8
Codec ID                                 : S_TEXT/UTF8
Codec ID/Info                            : UTF-8 Plain Text
Duration                                 : 9 min 32 s
Bit rate                                 : 57 b/s
Frame rate                               : 0.175 FPS
Count of elements                        : 100
Stream size                              : 3.99 KiB (0%)
Title                                    : Norwegian Bokmal
Language                                 : Norwegian Bokmal
Default                                  : No
Forced                                   : No

Text #39
ID                                       : 42
Format                                   : UTF-8
Codec ID                                 : S_TEXT/UTF8
Codec ID/Info                            : UTF-8 Plain Text
Duration                                 : 11 min 39 s
Bit rate                                 : 40 b/s
Frame rate                               : 0.163 FPS
Count of elements                        : 114
Stream size                              : 3.47 KiB (0%)
Title                                    : Norwegian Bokmal
Language                                 : Norwegian Bokmal
Default                                  : No
Forced                                   : No

Text #40
ID                                       : 43
Format                                   : UTF-8
Codec ID                                 : S_TEXT/UTF8
Codec ID/Info                            : UTF-8 Plain Text
Duration                                 : 11 min 39 s
Bit rate                                 : 38 b/s
Frame rate                               : 0.163 FPS
Count of elements                        : 114
Stream size                              : 3.29 KiB (0%)
Title                                    : Dutch
Language                                 : Dutch
Default                                  : No
Forced                                   : No

Text #41
ID                                       : 44
Format                                   : UTF-8
Codec ID                                 : S_TEXT/UTF8
Codec ID/Info                            : UTF-8 Plain Text
Duration                                 : 9 min 29 s
Bit rate                                 : 58 b/s
Frame rate                               : 0.179 FPS
Count of elements                        : 102
Stream size                              : 4.03 KiB (0%)
Title                                    : Dutch
Language                                 : Dutch
Default                                  : No
Forced                                   : No

Text #42
ID                                       : 45
Format                                   : UTF-8
Codec ID                                 : S_TEXT/UTF8
Codec ID/Info                            : UTF-8 Plain Text
Duration                                 : 11 min 39 s
Bit rate                                 : 38 b/s
Frame rate                               : 0.163 FPS
Count of elements                        : 114
Stream size                              : 3.29 KiB (0%)
Title                                    : Polish
Language                                 : Polish
Default                                  : No
Forced                                   : No

Text #43
ID                                       : 46
Format                                   : UTF-8
Codec ID                                 : S_TEXT/UTF8
Codec ID/Info                            : UTF-8 Plain Text
Duration                                 : 9 min 29 s
Bit rate                                 : 57 b/s
Frame rate                               : 0.179 FPS
Count of elements                        : 102
Stream size                              : 4.00 KiB (0%)
Title                                    : Portuguese
Language                                 : Portuguese
Default                                  : No
Forced                                   : No

Text #44
ID                                       : 47
Format                                   : UTF-8
Codec ID                                 : S_TEXT/UTF8
Codec ID/Info                            : UTF-8 Plain Text
Duration                                 : 11 min 39 s
Bit rate                                 : 41 b/s
Frame rate                               : 0.163 FPS
Count of elements                        : 114
Stream size                              : 3.58 KiB (0%)
Title                                    : Portuguese
Language                                 : Portuguese
Default                                  : No
Forced                                   : No

Text #45
ID                                       : 48
Format                                   : UTF-8
Codec ID                                 : S_TEXT/UTF8
Codec ID/Info                            : UTF-8 Plain Text
Duration                                 : 11 min 39 s
Bit rate                                 : 38 b/s
Frame rate                               : 0.163 FPS
Count of elements                        : 114
Stream size                              : 3.25 KiB (0%)
Title                                    : Brazilian Portuguese
Language                                 : Portuguese (BR)
Default                                  : No
Forced                                   : No

Text #46
ID                                       : 49
Format                                   : UTF-8
Codec ID                                 : S_TEXT/UTF8
Codec ID/Info                            : UTF-8 Plain Text
Duration                                 : 9 min 30 s
Bit rate                                 : 54 b/s
Frame rate                               : 0.174 FPS
Count of elements                        : 99
Stream size                              : 3.79 KiB (0%)
Title                                    : Brazilian Portuguese
Language                                 : Portuguese (BR)
Default                                  : No
Forced                                   : No

Text #47
ID                                       : 50
Format                                   : UTF-8
Codec ID                                 : S_TEXT/UTF8
Codec ID/Info                            : UTF-8 Plain Text
Duration                                 : 9 min 58 s
Bit rate                                 : 53 b/s
Frame rate                               : 0.177 FPS
Count of elements                        : 106
Stream size                              : 3.88 KiB (0%)
Title                                    : Romanian
Language                                 : Romanian
Default                                  : No
Forced                                   : No

Text #48
ID                                       : 51
Format                                   : UTF-8
Codec ID                                 : S_TEXT/UTF8
Codec ID/Info                            : UTF-8 Plain Text
Duration                                 : 11 min 39 s
Bit rate                                 : 41 b/s
Frame rate                               : 0.160 FPS
Count of elements                        : 112
Stream size                              : 3.58 KiB (0%)
Title                                    : Romanian
Language                                 : Romanian
Default                                  : No
Forced                                   : No

Text #49
ID                                       : 52
Format                                   : UTF-8
Codec ID                                 : S_TEXT/UTF8
Codec ID/Info                            : UTF-8 Plain Text
Duration                                 : 11 min 39 s
Bit rate                                 : 66 b/s
Frame rate                               : 0.163 FPS
Count of elements                        : 114
Stream size                              : 5.72 KiB (0%)
Title                                    : Russian
Language                                 : Russian
Default                                  : No
Forced                                   : No

Text #50
ID                                       : 53
Format                                   : UTF-8
Codec ID                                 : S_TEXT/UTF8
Codec ID/Info                            : UTF-8 Plain Text
Duration                                 : 9 min 28 s
Bit rate                                 : 57 b/s
Frame rate                               : 0.141 FPS
Count of elements                        : 80
Stream size                              : 3.97 KiB (0%)
Title                                    : Swedish
Language                                 : Swedish
Default                                  : No
Forced                                   : No

Text #51
ID                                       : 54
Format                                   : UTF-8
Codec ID                                 : S_TEXT/UTF8
Codec ID/Info                            : UTF-8 Plain Text
Duration                                 : 11 min 39 s
Bit rate                                 : 41 b/s
Frame rate                               : 0.163 FPS
Count of elements                        : 114
Stream size                              : 3.57 KiB (0%)
Title                                    : Swedish
Language                                 : Swedish
Default                                  : No
Forced                                   : No

Text #52
ID                                       : 55
Format                                   : UTF-8
Codec ID                                 : S_TEXT/UTF8
Codec ID/Info                            : UTF-8 Plain Text
Duration                                 : 2 min 4 s
Bit rate                                 : 8 b/s
Frame rate                               : 0.016 FPS
Count of elements                        : 2
Stream size                              : 128 Bytes (0%)
Title                                    : Tamil (Forced)
Language                                 : Tamil
Default                                  : No
Forced                                   : Yes

Text #53
ID                                       : 56
Format                                   : UTF-8
Codec ID                                 : S_TEXT/UTF8
Codec ID/Info                            : UTF-8 Plain Text
Duration                                 : 3 min 23 s
Bit rate                                 : 5 b/s
Frame rate                               : 0.015 FPS
Count of elements                        : 3
Stream size                              : 136 Bytes (0%)
Title                                    : Telugu (Forced)
Language                                 : Telugu
Default                                  : No
Forced                                   : Yes

Text #54
ID                                       : 57
Format                                   : UTF-8
Codec ID                                 : S_TEXT/UTF8
Codec ID/Info                            : UTF-8 Plain Text
Duration                                 : 11 min 39 s
Bit rate                                 : 92 b/s
Frame rate                               : 0.163 FPS
Count of elements                        : 114
Stream size                              : 7.88 KiB (0%)
Title                                    : Thai
Language                                 : Thai
Default                                  : No
Forced                                   : No

Text #55
ID                                       : 58
Format                                   : UTF-8
Codec ID                                 : S_TEXT/UTF8
Codec ID/Info                            : UTF-8 Plain Text
Duration                                 : 9 min 30 s
Bit rate                                 : 122 b/s
Frame rate                               : 0.258 FPS
Count of elements                        : 147
Stream size                              : 8.55 KiB (0%)
Title                                    : Thai
Language                                 : Thai
Default                                  : No
Forced                                   : No

Text #56
ID                                       : 59
Format                                   : UTF-8
Codec ID                                 : S_TEXT/UTF8
Codec ID/Info                            : UTF-8 Plain Text
Duration                                 : 11 min 39 s
Bit rate                                 : 41 b/s
Frame rate                               : 0.163 FPS
Count of elements                        : 114
Stream size                              : 3.58 KiB (0%)
Title                                    : Turkish
Language                                 : Turkish
Default                                  : No
Forced                                   : No

Text #57
ID                                       : 60
Format                                   : UTF-8
Codec ID                                 : S_TEXT/UTF8
Codec ID/Info                            : UTF-8 Plain Text
Duration                                 : 9 min 30 s
Bit rate                                 : 51 b/s
Frame rate                               : 0.174 FPS
Count of elements                        : 99
Stream size                              : 3.61 KiB (0%)
Title                                    : Turkish
Language                                 : Turkish
Default                                  : No
Forced                                   : No

Text #58
ID                                       : 61
Format                                   : UTF-8
Codec ID                                 : S_TEXT/UTF8
Codec ID/Info                            : UTF-8 Plain Text
Duration                                 : 11 min 39 s
Bit rate                                 : 72 b/s
Frame rate                               : 0.163 FPS
Count of elements                        : 114
Stream size                              : 6.18 KiB (0%)
Title                                    : Ukrainian
Language                                 : Ukrainian
Default                                  : No
Forced                                   : No

Text #59
ID                                       : 62
Format                                   : UTF-8
Codec ID                                 : S_TEXT/UTF8
Codec ID/Info                            : UTF-8 Plain Text
Duration                                 : 9 min 56 s
Bit rate                                 : 80 b/s
Frame rate                               : 0.164 FPS
Count of elements                        : 98
Stream size                              : 5.85 KiB (0%)
Title                                    : Ukrainian
Language                                 : Ukrainian
Default                                  : No
Forced                                   : No

Text #60
ID                                       : 63
Format                                   : UTF-8
Codec ID                                 : S_TEXT/UTF8
Codec ID/Info                            : UTF-8 Plain Text
Duration                                 : 11 min 39 s
Bit rate                                 : 49 b/s
Frame rate                               : 0.157 FPS
Count of elements                        : 110
Stream size                              : 4.27 KiB (0%)
Title                                    : Vietnamese
Language                                 : Vietnamese
Default                                  : No
Forced                                   : No

Text #61
ID                                       : 64
Format                                   : UTF-8
Codec ID                                 : S_TEXT/UTF8
Codec ID/Info                            : UTF-8 Plain Text
Duration                                 : 9 min 29 s
Bit rate                                 : 77 b/s
Frame rate                               : 0.186 FPS
Count of elements                        : 106
Stream size                              : 5.37 KiB (0%)
Title                                    : Vietnamese
Language                                 : Vietnamese
Default                                  : No
Forced                                   : No

Text #62
ID                                       : 65
Format                                   : UTF-8
Codec ID                                 : S_TEXT/UTF8
Codec ID/Info                            : UTF-8 Plain Text
Duration                                 : 9 min 29 s
Bit rate                                 : 49 b/s
Frame rate                               : 0.198 FPS
Count of elements                        : 113
Stream size                              : 3.46 KiB (0%)
Title                                    : Chinese Simplified
Language                                 : Chinese (Simplified)
Default                                  : No
Forced                                   : No

Text #63
ID                                       : 66
Format                                   : UTF-8
Codec ID                                 : S_TEXT/UTF8
Codec ID/Info                            : UTF-8 Plain Text
Duration                                 : 9 min 56 s
Bit rate                                 : 47 b/s
Frame rate                               : 0.183 FPS
Count of elements                        : 109
Stream size                              : 3.46 KiB (0%)
Title                                    : Chinese Traditional
Language                                 : Chinese (Traditional)
Default                                  : No
Forced                                   : No

Text #64
ID                                       : 67
Format                                   : UTF-8
Codec ID                                 : S_TEXT/UTF8
Codec ID/Info                            : UTF-8 Plain Text
Duration                                 : 9 min 29 s
Bit rate                                 : 53 b/s
Frame rate                               : 0.198 FPS
Count of elements                        : 113
Stream size                              : 3.68 KiB (0%)
Title                                    : Chinese Traditional
Language                                 : Chinese (Traditional)
Default                                  : No
Forced                                   : No

Menu
00:00:00.000                             : en:Part 01
00:10:09.450                             : en:Credits

Other Files in this Torrent
Pokemon Concierge S01E03 I Hope I Can Evolve Too [1080p AV1][Netflix WEB-DL].mkv
beta
Anime DDL+NZB mirror
Current Time: 12/07/2024 23:29



About/FAQs

Discord