Pocket Monsters (1997) episode 072 [TSHS] Nyasu's ABCs [FE6CF416].mkv


File Size164.7 MB (172,649,522 bytes)
DownloadClickNUpload | DailyUploads | DownloadGG | GoFile | KrakenFiles | MdiaLoad | MultiUp
  • BdUpload
  • DownAce
  • Fichier
  • FileCloud
  • Filerio
  • FilesCdn
  • IndiShare
  • Kbagi
  • Turbobit
  • UpToBox
  • Uppit
| Uppit
HashesCRC32: FE6CF416, MD5: 936A93D327E42ED9D0DA76877BAF9914, SHA1: 1DA35C6CA4D80008F7381082511EF821F8DC91C3, SHA256: 4B498151EE486544D5C2D3A4C1765777E2E7DBCC2014820D066FBA671D16DE24, ED2K: E39D6E7B00389B769C9A4BFD6ABDC2C5
Screenshots
screenshotscreenshotscreenshotscreenshotscreenshot
SubtitlesAll Attachments | eng [ASS], jpn [SRT]
Additional Info
General
Unique ID                                : 36604431589273157838416380595517170824 (0x1B89C1D09E2A5DF587FE3725C1A2A488)
Complete name                            : Pocket Monsters (1997) episode 072 [TSHS] Nyasu's ABCs [FE6CF416].mkv
Format                                   : Matroska
Format version                           : Version 4
File size                                : 165 MiB
Duration                                 : 24 min 59 s
Overall bit rate                         : 921 kb/s
Frame rate                               : 23.976 FPS
Encoded date                             : 2024-04-01 22:23:28 UTC
Writing application                      : mkvmerge v44.0.0 ('Domino') 64-bit
Writing library                          : libebml v1.3.10 + libmatroska v1.5.2
Attachments                              : AG Book Rounded Regular.otf / FOT-SeuratPro-DB.otf / digistrip_0.ttf / Russell Square Regular_0.ttf / trebucbd_0.ttf / trebucbi_0.ttf

Video
ID                                       : 1
Format                                   : AVC
Format/Info                              : Advanced Video Codec
Format profile                           : High@L3.2
Format settings                          : CABAC / 16 Ref Frames
Format settings, CABAC                   : Yes
Format settings, Reference frames        : 16 frames
Codec ID                                 : V_MPEG4/ISO/AVC
Duration                                 : 24 min 59 s
Bit rate                                 : 763 kb/s
Width                                    : 640 pixels
Height                                   : 480 pixels
Display aspect ratio                     : 4:3
Frame rate mode                          : Constant
Frame rate                               : 23.976 (24000/1001) FPS
Color space                              : YUV
Chroma subsampling                       : 4:2:0
Bit depth                                : 8 bits
Scan type                                : Progressive
Bits/(Pixel*Frame)                       : 0.104
Stream size                              : 136 MiB (83%)
Writing library                          : x264 core 132 r2310 76a5c3a
Encoding settings                        : cabac=1 / ref=16 / deblock=1:0:0 / analyse=0x3:0x133 / me=umh / subme=10 / psy=1 / psy_rd=1.10:0.00 / mixed_ref=1 / me_range=40 / chroma_me=1 / trellis=2 / 8x8dct=1 / cqm=0 / deadzone=21,11 / fast_pskip=0 / chroma_qp_offset=-4 / threads=8 / lookahead_threads=2 / sliced_threads=0 / nr=0 / decimate=1 / interlaced=0 / bluray_compat=0 / constrained_intra=0 / bframes=16 / b_pyramid=2 / b_adapt=2 / b_bias=0 / direct=1 / weightb=1 / open_gop=0 / weightp=2 / keyint=288 / keyint_min=23 / scenecut=40 / intra_refresh=0 / rc_lookahead=60 / rc=crf / mbtree=1 / crf=18.0 / qcomp=0.60 / qpmin=0 / qpmax=69 / qpstep=4 / ip_ratio=1.40 / aq=1:1.00
Default                                  : Yes
Forced                                   : No

Audio
ID                                       : 2
Format                                   : AAC LC
Format/Info                              : Advanced Audio Codec Low Complexity
Codec ID                                 : A_AAC-2
Duration                                 : 24 min 59 s
Bit rate                                 : 125 kb/s
Channel(s)                               : 2 channels
Channel layout                           : L R
Sampling rate                            : 48.0 kHz
Frame rate                               : 46.875 FPS (1024 SPF)
Compression mode                         : Lossy
Stream size                              : 22.3 MiB (14%)
Language                                 : Japanese
Default                                  : Yes
Forced                                   : No

Text #1
ID                                       : 3
Format                                   : ASS
Codec ID                                 : S_TEXT/ASS
Codec ID/Info                            : Advanced Sub Station Alpha
Duration                                 : 24 min 59 s
Bit rate                                 : 182 b/s
Frame rate                               : 0.340 FPS
Count of elements                        : 510
Compression mode                         : Lossless
Stream size                              : 33.3 KiB (0%)
Language                                 : English
Default                                  : Yes
Forced                                   : No

Text #2
ID                                       : 4
Format                                   : UTF-8
Codec ID                                 : S_TEXT/UTF8
Codec ID/Info                            : UTF-8 Plain Text
Duration                                 : 23 min 1 s
Bit rate                                 : 82 b/s
Frame rate                               : 0.214 FPS
Count of elements                        : 296
Stream size                              : 13.9 KiB (0%)
Language                                 : Japanese
Default                                  : No
Forced                                   : No

Menu
00:00:00.000                             : ja:OP - Mezase Pokémon Master
00:01:38.100                             : ja:Part A
00:10:01.370                             : Eyecatches
00:10:12.840                             : ja:Part B
00:21:53.910                             : ja:ED - Type: Wild!
00:23:14.950                             : ja:Pokémon Lecture
00:24:14.800                             : Preview

Other Files in this Torrent
Pocket Monsters (1997) episode 072 [TSHS] Nyasu's ABCs [FE6CF416].mkv
beta
Anime DDL+NZB mirror
Current Time: 14/06/2024 17:57



About/FAQs

Discord