Pocket Monsters (1997) episode 065 [TSHS] Rougela's Christmas [5EE722D3].mkv


File Size185.1 MB (194,137,519 bytes)
DownloadClickNUpload | DailyUploads | DownloadGG | GoFile | KrakenFiles | MdiaLoad | MultiUp
  • BdUpload
  • DownAce
  • Fichier
  • FileCloud
  • Filerio
  • FilesCdn
  • IndiShare
  • Kbagi
  • Turbobit
  • UpToBox
  • Uppit
| Uppit
HashesCRC32: 5EE722D3, MD5: 18DE3759D1043C6856D31EAB9947FEF5, SHA1: 732042A6A5D1EBC7977CDC40B68F71013BD26207, SHA256: 56B5D1FF61D8105B43B26BD57241789D8F2207167B5E7092353522CBC55F2874, ED2K: 1BC0C3897819430B35CAC6CCEC5E303B
Screenshots
screenshotscreenshotscreenshotscreenshotscreenshot
SubtitlesAll Attachments | eng [ASS], jpn [SRT]
Additional Info
General
Unique ID                                : 100683141171760974046677509524197891737 (0x4BBEDE1E29FC33FDBF201487E27A5E99)
Complete name                            : Pocket Monsters (1997) episode 065 [TSHS] Rougela's Christmas [5EE722D3].mkv
Format                                   : Matroska
Format version                           : Version 4
File size                                : 185 MiB
Duration                                 : 24 min 14 s
Overall bit rate                         : 1 067 kb/s
Frame rate                               : 23.976 FPS
Encoded date                             : 2024-04-01 20:45:57 UTC
Writing application                      : mkvmerge v44.0.0 ('Domino') 64-bit
Writing library                          : libebml v1.3.10 + libmatroska v1.5.2
Attachments                              : AG Book Rounded Regular.otf / digistrip_0.ttf / Russell Square Regular_0.ttf / trebucbd_0.ttf / trebucbi_0.ttf

Video
ID                                       : 1
Format                                   : AVC
Format/Info                              : Advanced Video Codec
Format profile                           : High@L3.2
Format settings                          : CABAC / 16 Ref Frames
Format settings, CABAC                   : Yes
Format settings, Reference frames        : 16 frames
Codec ID                                 : V_MPEG4/ISO/AVC
Duration                                 : 24 min 14 s
Bit rate                                 : 938 kb/s
Width                                    : 640 pixels
Height                                   : 480 pixels
Display aspect ratio                     : 4:3
Frame rate mode                          : Constant
Frame rate                               : 23.976 (24000/1001) FPS
Color space                              : YUV
Chroma subsampling                       : 4:2:0
Bit depth                                : 8 bits
Scan type                                : Progressive
Bits/(Pixel*Frame)                       : 0.127
Stream size                              : 163 MiB (88%)
Writing library                          : x264 core 132 r2310 76a5c3a
Encoding settings                        : cabac=1 / ref=16 / deblock=1:0:0 / analyse=0x3:0x133 / me=umh / subme=10 / psy=1 / psy_rd=1.10:0.00 / mixed_ref=1 / me_range=40 / chroma_me=1 / trellis=2 / 8x8dct=1 / cqm=0 / deadzone=21,11 / fast_pskip=0 / chroma_qp_offset=-4 / threads=8 / lookahead_threads=2 / sliced_threads=0 / nr=0 / decimate=1 / interlaced=0 / bluray_compat=0 / constrained_intra=0 / bframes=16 / b_pyramid=2 / b_adapt=2 / b_bias=0 / direct=1 / weightb=1 / open_gop=0 / weightp=2 / keyint=288 / keyint_min=23 / scenecut=40 / intra_refresh=0 / rc_lookahead=60 / rc=crf / mbtree=1 / crf=18.0 / qcomp=0.60 / qpmin=0 / qpmax=69 / qpstep=4 / ip_ratio=1.40 / aq=1:1.00
Default                                  : Yes
Forced                                   : No

Audio
ID                                       : 2
Format                                   : AAC LC
Format/Info                              : Advanced Audio Codec Low Complexity
Codec ID                                 : A_AAC-2
Duration                                 : 24 min 14 s
Bit rate                                 : 125 kb/s
Channel(s)                               : 2 channels
Channel layout                           : L R
Sampling rate                            : 48.0 kHz
Frame rate                               : 46.875 FPS (1024 SPF)
Compression mode                         : Lossy
Stream size                              : 21.6 MiB (12%)
Language                                 : Japanese
Default                                  : Yes
Forced                                   : No

Text #1
ID                                       : 3
Format                                   : ASS
Codec ID                                 : S_TEXT/ASS
Codec ID/Info                            : Advanced Sub Station Alpha
Duration                                 : 24 min 14 s
Bit rate                                 : 183 b/s
Frame rate                               : 0.355 FPS
Count of elements                        : 516
Compression mode                         : Lossless
Stream size                              : 32.6 KiB (0%)
Language                                 : English
Default                                  : Yes
Forced                                   : No

Text #2
ID                                       : 4
Format                                   : UTF-8
Codec ID                                 : S_TEXT/UTF8
Codec ID/Info                            : UTF-8 Plain Text
Duration                                 : 19 min 27 s
Bit rate                                 : 118 b/s
Frame rate                               : 0.334 FPS
Count of elements                        : 390
Stream size                              : 16.9 KiB (0%)
Language                                 : Japanese
Default                                  : No
Forced                                   : No

Menu
00:00:00.000                             : ja:OP - Mezase Pok√©mon Master
00:01:37.990                             : ja:Part A
00:09:29.330                             : Eyecatches
00:09:40.890                             : ja:Part B
00:21:08.950                             : ja:ED - Nyasu no Uta
00:22:29.910                             : ja:Together With the Wind (Mewtwo Strikes Back)
00:23:29.880                             : Preview

Other Files in this Torrent
Pocket Monsters (1997) episode 065 [TSHS] Rougela's Christmas [5EE722D3].mkv
beta
Anime DDL+NZB mirror
Current Time: 14/06/2024 18:29



About/FAQs

Discord