Pocket Monsters (1997) episode 063 [TSHS] Tokiwa Gym! The Final Badge! [3931AA5C].mkv


File Size192.0 MB (201,302,458 bytes)
DownloadClickNUpload | DailyUploads | DownloadGG | GoFile | KrakenFiles | MdiaLoad | MultiUp
  • BdUpload
  • DownAce
  • Fichier
  • FileCloud
  • Filerio
  • FilesCdn
  • IndiShare
  • Kbagi
  • Turbobit
  • UpToBox
  • Uppit
| Uppit
HashesCRC32: 3931AA5C, MD5: 87CCAA836A5D71B6952DDEEF40EB9E5A, SHA1: 54AA6946270479F03A6DA4EBC6EC35391F6619D2, SHA256: AED39DD437D88F8B213B8EDC767DE26CC83B36AF10162F36F97BFCFAE6F72E0B, ED2K: 45FB77A85C2D76AC34158BBB594984FA
Screenshots
screenshotscreenshotscreenshotscreenshotscreenshot
SubtitlesAll Attachments | eng [ASS], jpn [SRT]
Additional Info
General
Unique ID                                : 245436400063075382854972431715347391478 (0xB8A554CBA5A8A7CB6D592C080EF2E3F6)
Complete name                            : Pocket Monsters (1997) episode 063 [TSHS] Tokiwa Gym! The Final Badge! [3931AA5C].mkv
Format                                   : Matroska
Format version                           : Version 4
File size                                : 192 MiB
Duration                                 : 24 min 59 s
Overall bit rate                         : 1 074 kb/s
Frame rate                               : 23.976 FPS
Encoded date                             : 2024-04-01 07:42:41 UTC
Writing application                      : mkvmerge v44.0.0 ('Domino') 64-bit
Writing library                          : libebml v1.3.10 + libmatroska v1.5.2
Attachments                              : AG Book Rounded Regular.otf / digistrip_0.ttf / Russell Square Regular_0.ttf / trebucbd_0.ttf / trebucbi_0.ttf / FIRESTARTER_0.TTF

Video
ID                                       : 1
Format                                   : AVC
Format/Info                              : Advanced Video Codec
Format profile                           : High@L3.2
Format settings                          : CABAC / 16 Ref Frames
Format settings, CABAC                   : Yes
Format settings, Reference frames        : 16 frames
Codec ID                                 : V_MPEG4/ISO/AVC
Duration                                 : 24 min 59 s
Bit rate                                 : 944 kb/s
Width                                    : 640 pixels
Height                                   : 480 pixels
Display aspect ratio                     : 4:3
Frame rate mode                          : Constant
Frame rate                               : 23.976 (24000/1001) FPS
Color space                              : YUV
Chroma subsampling                       : 4:2:0
Bit depth                                : 8 bits
Scan type                                : Progressive
Bits/(Pixel*Frame)                       : 0.128
Stream size                              : 169 MiB (88%)
Writing library                          : x264 core 132 r2310 76a5c3a
Encoding settings                        : cabac=1 / ref=16 / deblock=1:0:0 / analyse=0x3:0x133 / me=umh / subme=10 / psy=1 / psy_rd=1.10:0.00 / mixed_ref=1 / me_range=40 / chroma_me=1 / trellis=2 / 8x8dct=1 / cqm=0 / deadzone=21,11 / fast_pskip=0 / chroma_qp_offset=-4 / threads=8 / lookahead_threads=2 / sliced_threads=0 / nr=0 / decimate=1 / interlaced=0 / bluray_compat=0 / constrained_intra=0 / bframes=16 / b_pyramid=2 / b_adapt=2 / b_bias=0 / direct=1 / weightb=1 / open_gop=0 / weightp=2 / keyint=288 / keyint_min=23 / scenecut=40 / intra_refresh=0 / rc_lookahead=60 / rc=crf / mbtree=1 / crf=18.0 / qcomp=0.60 / qpmin=0 / qpmax=69 / qpstep=4 / ip_ratio=1.40 / aq=1:1.00
Default                                  : Yes
Forced                                   : No

Audio
ID                                       : 2
Format                                   : AAC LC
Format/Info                              : Advanced Audio Codec Low Complexity
Codec ID                                 : A_AAC-2
Duration                                 : 24 min 59 s
Bit rate                                 : 125 kb/s
Channel(s)                               : 2 channels
Channel layout                           : L R
Sampling rate                            : 48.0 kHz
Frame rate                               : 46.875 FPS (1024 SPF)
Compression mode                         : Lossy
Stream size                              : 22.3 MiB (12%)
Language                                 : Japanese
Default                                  : Yes
Forced                                   : No

Text #1
ID                                       : 3
Format                                   : ASS
Codec ID                                 : S_TEXT/ASS
Codec ID/Info                            : Advanced Sub Station Alpha
Duration                                 : 24 min 59 s
Bit rate                                 : 219 b/s
Frame rate                               : 0.400 FPS
Count of elements                        : 600
Compression mode                         : Lossless
Stream size                              : 40.2 KiB (0%)
Language                                 : English
Default                                  : Yes
Forced                                   : No

Text #2
ID                                       : 4
Format                                   : UTF-8
Codec ID                                 : S_TEXT/UTF8
Codec ID/Info                            : UTF-8 Plain Text
Duration                                 : 20 min 13 s
Bit rate                                 : 136 b/s
Frame rate                               : 0.358 FPS
Count of elements                        : 435
Stream size                              : 20.2 KiB (0%)
Language                                 : Japanese
Default                                  : No
Forced                                   : No

Menu
00:00:00.000                             : ja:OP - Mezase Pokémon Master
00:01:38.100                             : ja:Part A
00:10:39.450                             : Eyecatches
00:10:50.920                             : ja:Part B
00:21:54.120                             : ja:ED - Pokémon Ondo  
00:23:14.950                             : ja:Pokémon Lecture
00:24:14.930                             : Preview

Other Files in this Torrent
Pocket Monsters (1997) episode 063 [TSHS] Tokiwa Gym! The Final Badge! [3931AA5C].mkv
beta
Anime DDL+NZB mirror
Current Time: 14/06/2024 18:53



About/FAQs

Discord