One Piece - 938 - Shaking the Nation! The Identity of Ushimitsu Kozo the Chivalrous Thief! [D9C0543B].mkv


File Size1.049 GB (1,126,371,992 bytes)
DownloadClickNUpload | GoFile | MdiaLoad
DownloadGG: Part1, Part2
KrakenFiles: Part1, Part2
MultiUp: Part1
  • BdUpload
  • DownAce
  • Fichier
  • FileCloud
  • Filerio
  • FilesCdn
  • IndiShare
  • Kbagi
  • Turbobit
  • UpToBox
  • Uppit
, Part2
  • BdUpload
  • DownAce
  • Fichier
  • FileCloud
  • Filerio
  • FilesCdn
  • IndiShare
  • Kbagi
  • Turbobit
  • UpToBox
  • Uppit
, Part3
  • BdUpload
  • DownAce
  • Fichier
  • FileCloud
  • Filerio
  • FilesCdn
  • IndiShare
  • Kbagi
  • Turbobit
  • UpToBox
  • Uppit
HashesCRC32: E0833983, MD5: 016DE7E211F3FE2C9ABB43E78BFFAD84, SHA1: A71CDD10D9D1B4B96733495B104BB47378046DBD, SHA256: DC540870D15C3E565862A8A0E0E8B3EB58223C7D0AED2CC9E95D9E32211A9DE0, ED2K: F7C611C42F85731B5CF50FA9349296D6
Screenshots
screenshotscreenshotscreenshotscreenshotscreenshot
SubtitlesAll Attachments | English Subtitles [CR] [eng, ASS]
Additional Info
General
Unique ID                                : 122552309303262254358569314957382149750 (0x5C32B75A765C957549C750B78EAC6676)
Complete name                            : One Piece - 938 - Shaking the Nation! The Identity of Ushimitsu Kozo the Chivalrous Thief! [D9C0543B].mkv
Format                                   : Matroska
Format version                           : Version 4
File size                                : 1.05 GiB
Duration                                 : 24 min 9 s
Overall bit rate                         : 6 218 kb/s
Encoded date                             : UTC 2023-04-08 20:24:41
Writing application                      : mkvmerge v74.0.0 ('You Oughta Know') 64-bit
Writing library                          : libebml v1.4.4 + libmatroska v1.7.1 / Lavf59.35.100

Video
ID                                       : 1
Format                                   : AVC
Format/Info                              : Advanced Video Codec
Format profile                           : High@L4
Format settings                          : CABAC / 3 Ref Frames
Format settings, CABAC                   : Yes
Format settings, Reference frames        : 3 frames
Codec ID                                 : V_MPEG4/ISO/AVC
Duration                                 : 24 min 9 s
Bit rate                                 : 5 960 kb/s
Width                                    : 1 920 pixels
Height                                   : 1 080 pixels
Display aspect ratio                     : 16:9
Frame rate mode                          : Constant
Frame rate                               : 23.976 (24000/1001) FPS
Color space                              : YUV
Chroma subsampling                       : 4:2:0
Bit depth                                : 8 bits
Scan type                                : Progressive
Bits/(Pixel*Frame)                       : 0.120
Stream size                              : 1.01 GiB (96%)
Default                                  : No
Forced                                   : No
Color range                              : Limited
Matrix coefficients                      : BT.709

Audio
ID                                       : 2
Format                                   : AAC LC
Format/Info                              : Advanced Audio Codec Low Complexity
Codec ID                                 : A_AAC-2
Duration                                 : 24 min 9 s
Bit rate                                 : 256 kb/s
Channel(s)                               : 2 channels
Channel layout                           : L R
Sampling rate                            : 48.0 kHz
Frame rate                               : 46.875 FPS (1024 SPF)
Compression mode                         : Lossy
Stream size                              : 44.2 MiB (4%)
Default                                  : No
Forced                                   : No

Text
ID                                       : 3
Format                                   : ASS
Codec ID                                 : S_TEXT/ASS
Codec ID/Info                            : Advanced Sub Station Alpha
Duration                                 : 23 min 37 s
Bit rate                                 : 122 b/s
Count of elements                        : 331
Compression mode                         : Lossless
Stream size                              : 21.1 KiB (0%)
Title                                    : English Subtitles [CR]
Language                                 : English
Default                                  : Yes
Forced                                   : No

Other Files in this Torrent
One Piece - 938 - Shaking the Nation! The Identity of Ushimitsu Kozo the Chivalrous Thief! [D9C0543B].mkv
beta
Anime DDL+NZB mirror
Current Time: 14/07/2024 20:36



About/FAQs

Discord