One Piece - 929 - The Bond Between Prisoners! Luffy and Old Man Hyo! [3A19B953].mkv


File Size1.014 GB (1,089,213,820 bytes)
DownloadClickNUpload | GoFile | MdiaLoad
DownloadGG: Part1, Part2
KrakenFiles: Part1, Part2
MultiUp: Part1
  • BdUpload
  • DownAce
  • Fichier
  • FileCloud
  • Filerio
  • FilesCdn
  • IndiShare
  • Kbagi
  • Turbobit
  • UpToBox
  • Uppit
, Part2
  • BdUpload
  • DownAce
  • Fichier
  • FileCloud
  • Filerio
  • FilesCdn
  • IndiShare
  • Kbagi
  • Turbobit
  • UpToBox
  • Uppit
, Part3
  • BdUpload
  • DownAce
  • Fichier
  • FileCloud
  • Filerio
  • FilesCdn
  • IndiShare
  • Kbagi
  • Turbobit
  • UpToBox
  • Uppit
HashesCRC32: EC48A637, MD5: C763E5A561081188F4C395A3A1D3F562, SHA1: AC312B83082C27AD809AB5C462B8B3D4D02B5CF9, SHA256: 852E35E7E8BC455EF3A199B31544BF6AAF4F2DB2CAF2FEF296D305C9FEB680F0, ED2K: F69D46F30CC98E9D28106A0D34B2294B
Screenshots
screenshotscreenshotscreenshotscreenshotscreenshot
SubtitlesAll Attachments | English Subtitles [CR] [eng, ASS]
Additional Info
General
Unique ID                                : 118012273393549195359432439345200820684 (0x58C8564D101364B7DEEF8CB413B4F1CC)
Complete name                            : One Piece - 929 - The Bond Between Prisoners! Luffy and Old Man Hyo! [3A19B953].mkv
Format                                   : Matroska
Format version                           : Version 4
File size                                : 1.01 GiB
Duration                                 : 24 min 9 s
Overall bit rate                         : 6 013 kb/s
Encoded date                             : UTC 2023-04-08 20:19:24
Writing application                      : mkvmerge v74.0.0 ('You Oughta Know') 64-bit
Writing library                          : libebml v1.4.4 + libmatroska v1.7.1 / Lavf59.35.100

Video
ID                                       : 1
Format                                   : AVC
Format/Info                              : Advanced Video Codec
Format profile                           : High@L4
Format settings                          : CABAC / 3 Ref Frames
Format settings, CABAC                   : Yes
Format settings, Reference frames        : 3 frames
Codec ID                                 : V_MPEG4/ISO/AVC
Duration                                 : 24 min 9 s
Bit rate                                 : 5 755 kb/s
Width                                    : 1 920 pixels
Height                                   : 1 080 pixels
Display aspect ratio                     : 16:9
Frame rate mode                          : Constant
Frame rate                               : 23.976 (24000/1001) FPS
Color space                              : YUV
Chroma subsampling                       : 4:2:0
Bit depth                                : 8 bits
Scan type                                : Progressive
Bits/(Pixel*Frame)                       : 0.116
Stream size                              : 994 MiB (96%)
Default                                  : No
Forced                                   : No
Color range                              : Limited
Matrix coefficients                      : BT.709

Audio
ID                                       : 2
Format                                   : AAC LC
Format/Info                              : Advanced Audio Codec Low Complexity
Codec ID                                 : A_AAC-2
Duration                                 : 24 min 9 s
Bit rate                                 : 256 kb/s
Channel(s)                               : 2 channels
Channel layout                           : L R
Sampling rate                            : 48.0 kHz
Frame rate                               : 46.875 FPS (1024 SPF)
Compression mode                         : Lossy
Stream size                              : 44.2 MiB (4%)
Default                                  : No
Forced                                   : No

Text
ID                                       : 3
Format                                   : ASS
Codec ID                                 : S_TEXT/ASS
Codec ID/Info                            : Advanced Sub Station Alpha
Duration                                 : 23 min 37 s
Bit rate                                 : 156 b/s
Count of elements                        : 406
Compression mode                         : Lossless
Stream size                              : 27.0 KiB (0%)
Title                                    : English Subtitles [CR]
Language                                 : English
Default                                  : Yes
Forced                                   : No

Other Files in this Torrent
One Piece - 929 - The Bond Between Prisoners! Luffy and Old Man Hyo! [3A19B953].mkv
beta
Anime DDL+NZB mirror
Current Time: 14/07/2024 19:24



About/FAQs

Discord