One Piece - 932 - Dead or Alive! Queen`s Sumo Inferno! [39107B34].mkv


File Size1.048 GB (1,125,606,706 bytes)
DownloadClickNUpload | GoFile | MdiaLoad
DownloadGG: Part1, Part2
KrakenFiles: Part1, Part2
MultiUp: Part1
  • BdUpload
  • DownAce
  • Fichier
  • FileCloud
  • Filerio
  • FilesCdn
  • IndiShare
  • Kbagi
  • Turbobit
  • UpToBox
  • Uppit
, Part2
  • BdUpload
  • DownAce
  • Fichier
  • FileCloud
  • Filerio
  • FilesCdn
  • IndiShare
  • Kbagi
  • Turbobit
  • UpToBox
  • Uppit
, Part3
  • BdUpload
  • DownAce
  • Fichier
  • FileCloud
  • Filerio
  • FilesCdn
  • IndiShare
  • Kbagi
  • Turbobit
  • UpToBox
  • Uppit
HashesCRC32: CAE6D14F, MD5: 8BD13790681556CCB24F479F2678F4B9, SHA1: CDCE2EF73AEB29179378D11C1DA1810B2AD1CF45, SHA256: 8FAA221D661918F8A0B3E7F8AA30BB5C4CD3987BF10C5281A11A0C1B941FFD4F, ED2K: 3B1205B333BAC6362473326A83FA0E35
Screenshots
screenshotscreenshotscreenshotscreenshotscreenshot
SubtitlesAll Attachments | English Subtitles [CR] [eng, ASS]
Additional Info
General
Unique ID                                : 309225595482397759375506567966575043446 (0xE8A2AEF2B74C86A1E867C06F33282376)
Complete name                            : One Piece - 932 - Dead or Alive! Queen`s Sumo Inferno! [39107B34].mkv
Format                                   : Matroska
Format version                           : Version 4
File size                                : 1.05 GiB
Duration                                 : 24 min 9 s
Overall bit rate                         : 6 214 kb/s
Encoded date                             : UTC 2023-04-08 20:23:45
Writing application                      : mkvmerge v74.0.0 ('You Oughta Know') 64-bit
Writing library                          : libebml v1.4.4 + libmatroska v1.7.1 / Lavf59.35.100

Video
ID                                       : 1
Format                                   : AVC
Format/Info                              : Advanced Video Codec
Format profile                           : High@L4
Format settings                          : CABAC / 3 Ref Frames
Format settings, CABAC                   : Yes
Format settings, Reference frames        : 3 frames
Codec ID                                 : V_MPEG4/ISO/AVC
Duration                                 : 24 min 9 s
Bit rate                                 : 5 955 kb/s
Width                                    : 1 920 pixels
Height                                   : 1 080 pixels
Display aspect ratio                     : 16:9
Frame rate mode                          : Constant
Frame rate                               : 23.976 (24000/1001) FPS
Color space                              : YUV
Chroma subsampling                       : 4:2:0
Bit depth                                : 8 bits
Scan type                                : Progressive
Bits/(Pixel*Frame)                       : 0.120
Stream size                              : 1.00 GiB (96%)
Default                                  : No
Forced                                   : No
Color range                              : Limited
Matrix coefficients                      : BT.709

Audio
ID                                       : 2
Format                                   : AAC LC
Format/Info                              : Advanced Audio Codec Low Complexity
Codec ID                                 : A_AAC-2
Duration                                 : 24 min 9 s
Bit rate                                 : 256 kb/s
Channel(s)                               : 2 channels
Channel layout                           : L R
Sampling rate                            : 48.0 kHz
Frame rate                               : 46.875 FPS (1024 SPF)
Compression mode                         : Lossy
Stream size                              : 44.2 MiB (4%)
Default                                  : No
Forced                                   : No

Text
ID                                       : 3
Format                                   : ASS
Codec ID                                 : S_TEXT/ASS
Codec ID/Info                            : Advanced Sub Station Alpha
Duration                                 : 23 min 36 s
Bit rate                                 : 98 b/s
Count of elements                        : 272
Compression mode                         : Lossless
Stream size                              : 17.1 KiB (0%)
Title                                    : English Subtitles [CR]
Language                                 : English
Default                                  : Yes
Forced                                   : No

Other Files in this Torrent
One Piece - 932 - Dead or Alive! Queen`s Sumo Inferno! [39107B34].mkv
beta
Anime DDL+NZB mirror
Current Time: 14/07/2024 21:02



About/FAQs

Discord