One Piece - 935 - Zoro, Stunned! The Shocking Identity of the Mysterious Woman! [22E626E9].mkv


File Size1.036 GB (1,112,316,105 bytes)
DownloadClickNUpload | GoFile | MdiaLoad
DownloadGG: Part1, Part2
KrakenFiles: Part1, Part2
MultiUp: Part1
  • BdUpload
  • DownAce
  • Fichier
  • FileCloud
  • Filerio
  • FilesCdn
  • IndiShare
  • Kbagi
  • Turbobit
  • UpToBox
  • Uppit
, Part2
  • BdUpload
  • DownAce
  • Fichier
  • FileCloud
  • Filerio
  • FilesCdn
  • IndiShare
  • Kbagi
  • Turbobit
  • UpToBox
  • Uppit
, Part3
  • BdUpload
  • DownAce
  • Fichier
  • FileCloud
  • Filerio
  • FilesCdn
  • IndiShare
  • Kbagi
  • Turbobit
  • UpToBox
  • Uppit
HashesCRC32: 3C692959, MD5: 1C03079152E64BC0FF2B24E1C70DC5AA, SHA1: 6A016C18D675A5AFAA60A096BE0D64543407F135, SHA256: 5053AB1559FF1BAD4D9CF253E1186E70F50A5EBEF8C11BD258E0427F0BE4D0EA, ED2K: 67CE110C9ABDA2DBD626BDEABFB861B8
Screenshots
screenshotscreenshotscreenshotscreenshotscreenshot
SubtitlesAll Attachments | English Subtitles [CR] [eng, ASS]
Additional Info
General
Unique ID                                : 101307895514215067549912844221096004770 (0x4C3730E295028B4F3E2CA72A92060CA2)
Complete name                            : One Piece - 935 - Zoro, Stunned! The Shocking Identity of the Mysterious Woman! [22E626E9].mkv
Format                                   : Matroska
Format version                           : Version 4
File size                                : 1.04 GiB
Duration                                 : 24 min 9 s
Overall bit rate                         : 6 140 kb/s
Encoded date                             : UTC 2023-04-08 20:24:13
Writing application                      : mkvmerge v74.0.0 ('You Oughta Know') 64-bit
Writing library                          : libebml v1.4.4 + libmatroska v1.7.1 / Lavf59.35.100

Video
ID                                       : 1
Format                                   : AVC
Format/Info                              : Advanced Video Codec
Format profile                           : High@L4
Format settings                          : CABAC / 3 Ref Frames
Format settings, CABAC                   : Yes
Format settings, Reference frames        : 3 frames
Codec ID                                 : V_MPEG4/ISO/AVC
Duration                                 : 24 min 9 s
Bit rate                                 : 5 882 kb/s
Width                                    : 1 920 pixels
Height                                   : 1 080 pixels
Display aspect ratio                     : 16:9
Frame rate mode                          : Constant
Frame rate                               : 23.976 (24000/1001) FPS
Color space                              : YUV
Chroma subsampling                       : 4:2:0
Bit depth                                : 8 bits
Scan type                                : Progressive
Bits/(Pixel*Frame)                       : 0.118
Stream size                              : 1 016 MiB (96%)
Default                                  : No
Forced                                   : No
Color range                              : Limited
Matrix coefficients                      : BT.709

Audio
ID                                       : 2
Format                                   : AAC LC
Format/Info                              : Advanced Audio Codec Low Complexity
Codec ID                                 : A_AAC-2
Duration                                 : 24 min 9 s
Bit rate                                 : 256 kb/s
Channel(s)                               : 2 channels
Channel layout                           : L R
Sampling rate                            : 48.0 kHz
Frame rate                               : 46.875 FPS (1024 SPF)
Compression mode                         : Lossy
Stream size                              : 44.2 MiB (4%)
Default                                  : No
Forced                                   : No

Text
ID                                       : 3
Format                                   : ASS
Codec ID                                 : S_TEXT/ASS
Codec ID/Info                            : Advanced Sub Station Alpha
Duration                                 : 21 min 36 s
Bit rate                                 : 92 b/s
Count of elements                        : 250
Compression mode                         : Lossless
Stream size                              : 14.6 KiB (0%)
Title                                    : English Subtitles [CR]
Language                                 : English
Default                                  : Yes
Forced                                   : No

Other Files in this Torrent
One Piece - 935 - Zoro, Stunned! The Shocking Identity of the Mysterious Woman! [22E626E9].mkv
beta
Anime DDL+NZB mirror
Current Time: 14/07/2024 20:18



About/FAQs

Discord