File Size370.0 MB (388,012,618 bytes)
DownloadClickNUpload | Jheberg | MultiUp
  • BdUpload
  • DownAce
  • Fichier
  • FileCloud
  • Filerio
  • FilesCdn
  • IndiShare
  • Kbagi
  • Turbobit
  • UpToBox
  • Uppit
| OpenLoad | SolidFiles | ZippyShare
Sendspace: Part1, Part2
HashesCRC32: 864A143E, MD5: A907736F7AEF2EAF2A6C4D63C72E4EEF, SHA1: 6F61F3FB468300B371006E85FAA3CB59E4B501C3, SHA256: 2DE7F756875263C5FA1B1123D494D9B25FD572DD1E10781BDECE9DFEB5FBADF4, ED2K: 3808E8232AC185A151087AAE29B82C7D
Screenshots
screenshotscreenshotscreenshotscreenshotscreenshot
Additional Info
General
Complete name                            : [NoobSubs] Violet Evergarden 14 OVA (720p Blu-ray 8bit AAC).mp4
Format                                   : MPEG-4
Format profile                           : Base Media
Codec ID                                 : isom (isom/avc1)
File size                                : 370 MiB
Duration                                 : 34 min 15 s
Overall bit rate mode                    : Variable
Overall bit rate                         : 1 510 kb/s
Movie name                               : [NoobSubs] Violet Evergarden 14 OVA (720p Blu-ray 8bit AAC)
Album                                    : Violet Evergarden OVA
Track name/Position                      : 14
Track name/Total                         : 14
Performer                                : Subs: [Komorebi]
Encoded date                             : UTC 2019-09-04 12:42:51
Tagged date                              : UTC 2019-09-04 22:49:53
replaygain_undo                          : -1,-1
replaygain_track_peak                    : 0.810000
replaygain_track_minmax                  : 102,177
replaygain_track_gain                    : +1.74 dB

Video
ID                                       : 1
Format                                   : AVC
Format/Info                              : Advanced Video Codec
Format profile                           : High@L4
Format settings                          : CABAC / 6 Ref Frames
Format settings, CABAC                   : Yes
Format settings, ReFrames                : 6 frames
Codec ID                                 : avc1
Codec ID/Info                            : Advanced Video Coding
Duration                                 : 34 min 14 s
Bit rate                                 : 1 266 kb/s
Maximum bit rate                         : 10.8 Mb/s
Width                                    : 1 280 pixels
Height                                   : 720 pixels
Display aspect ratio                     : 16:9
Frame rate mode                          : Constant
Frame rate                               : 23.976 (24000/1001) FPS
Color space                              : YUV
Chroma subsampling                       : 4:2:0
Bit depth                                : 8 bits
Scan type                                : Progressive
Bits/(Pixel*Frame)                       : 0.057
Stream size                              : 310 MiB (84%)
Title                                    : 264@GPAC0.7.0-rev0-gbd5c9af-master
Writing library                          : x264 core 157 r2935 545de2f
Encoding settings                        : cabac=1 / ref=6 / deblock=1:-1:-1 / analyse=0x3:0x133 / me=umh / subme=10 / psy=1 / psy_rd=1.00:0.00 / mixed_ref=1 / me_range=24 / chroma_me=1 / trellis=2 / 8x8dct=1 / cqm=0 / deadzone=21,11 / fast_pskip=1 / chroma_qp_offset=-2 / threads=12 / lookahead_threads=2 / sliced_threads=0 / nr=0 / decimate=1 / interlaced=0 / bluray_compat=0 / constrained_intra=0 / bframes=7 / b_pyramid=2 / b_adapt=2 / b_bias=0 / direct=3 / weightb=1 / open_gop=0 / weightp=2 / keyint=250 / keyint_min=23 / scenecut=40 / intra_refresh=0 / rc_lookahead=60 / rc=crf / mbtree=1 / crf=17.3 / qcomp=0.60 / qpmin=0 / qpmax=69 / qpstep=4 / ip_ratio=1.40 / aq=1:1.20
Encoded date                             : UTC 2019-09-04 12:42:51
Tagged date                              : UTC 2019-09-04 12:42:54
Codec configuration box                  : avcC

Audio
ID                                       : 2
Format                                   : AAC LC
Format/Info                              : Advanced Audio Codec Low Complexity
Codec ID                                 : mp4a-40-2
Duration                                 : 34 min 15 s
Bit rate mode                            : Variable
Bit rate                                 : 241 kb/s
Maximum bit rate                         : 300 kb/s
Channel(s)                               : 2 channels
Channel layout                           : L R
Sampling rate                            : 48.0 kHz
Frame rate                               : 46.875 FPS (1024 SPF)
Compression mode                         : Lossy
Stream size                              : 59.1 MiB (16%)
Encoded date                             : UTC 2019-09-04 12:42:10
Tagged date                              : UTC 2019-09-04 12:42:54

Other Files in this Torrent
[NoobSubs] Violet Evergarden 14 OVA (720p Blu-ray 8bit AAC).mp4
beta
Anime DDL+NZB mirror
Current Time: 14/12/2019 14:02



About/FAQs