File Size26.75 MB (28,047,295 bytes)
DownloadClickNUpload | Jheberg | MultiUp
  • BdUpload
  • DownAce
  • Fichier
  • FileCloud
  • Filerio
  • FilesCdn
  • IndiShare
  • Kbagi
  • Turbobit
  • UpToBox
  • Uppit
| OpenLoad | Sendspace | SolidFiles | ZippyShare
HashesCRC32: 98378963, MD5: 98691FED518886FD61992E7E4CD2569E, SHA1: F13669D7D3218E03ACABE661C4B548E9C579ED17, SHA256: 34466CACB0BF0C94D37FA280DBA55BEE1BA38E1E9EC60E2B7A1FF656AD3A86CE, ED2K: 0C2BD1B8D1A304A3288F85D72F9EC11E
Screenshots
screenshot
Additional Info
General
Complete name                            : [NoobSubs] Violet Evergarden Menu 01 (720p Blu-ray 8bit AAC).mp4
Format                                   : MPEG-4
Format profile                           : Base Media
Codec ID                                 : isom (isom/avc1)
File size                                : 26.7 MiB
Duration                                 : 56 s 533 ms
Overall bit rate mode                    : Variable
Overall bit rate                         : 3 969 kb/s
Movie name                               : [NoobSubs] Violet Evergarden Menu 01 (720p Blu-ray 8bit AAC)
Album                                    : Violet Evergarden
Track name/Position                      : 1
Track name/Total                         : 4
Performer                                : Subs: None
Encoded date                             : UTC 2019-09-04 12:49:46
Tagged date                              : UTC 2019-09-04 22:44:14
replaygain_undo                          : -5,-5
replaygain_track_peak                    : 0.670000
replaygain_track_minmax                  : 109,166
replaygain_track_gain                    : +0.44 dB

Video
ID                                       : 1
Format                                   : AVC
Format/Info                              : Advanced Video Codec
Format profile                           : High@L4
Format settings                          : CABAC / 6 Ref Frames
Format settings, CABAC                   : Yes
Format settings, ReFrames                : 6 frames
Codec ID                                 : avc1
Codec ID/Info                            : Advanced Video Coding
Duration                                 : 56 s 430 ms
Bit rate                                 : 3 735 kb/s
Maximum bit rate                         : 16.6 Mb/s
Width                                    : 1 280 pixels
Height                                   : 720 pixels
Display aspect ratio                     : 16:9
Frame rate mode                          : Constant
Frame rate                               : 23.976 (24000/1001) FPS
Color space                              : YUV
Chroma subsampling                       : 4:2:0
Bit depth                                : 8 bits
Scan type                                : Progressive
Bits/(Pixel*Frame)                       : 0.169
Stream size                              : 25.1 MiB (94%)
Title                                    : 264@GPAC0.7.0-rev0-gbd5c9af-master
Writing library                          : x264 core 157 r2935 545de2f
Encoding settings                        : cabac=1 / ref=6 / deblock=1:-1:-1 / analyse=0x3:0x133 / me=umh / subme=10 / psy=1 / psy_rd=1.00:0.00 / mixed_ref=1 / me_range=24 / chroma_me=1 / trellis=2 / 8x8dct=1 / cqm=0 / deadzone=21,11 / fast_pskip=1 / chroma_qp_offset=-2 / threads=12 / lookahead_threads=2 / sliced_threads=0 / nr=0 / decimate=1 / interlaced=0 / bluray_compat=0 / constrained_intra=0 / bframes=7 / b_pyramid=2 / b_adapt=2 / b_bias=0 / direct=3 / weightb=1 / open_gop=0 / weightp=2 / keyint=250 / keyint_min=23 / scenecut=40 / intra_refresh=0 / rc_lookahead=60 / rc=crf / mbtree=1 / crf=17.3 / qcomp=0.60 / qpmin=0 / qpmax=69 / qpstep=4 / ip_ratio=1.40 / aq=1:1.20
Encoded date                             : UTC 2019-09-04 12:49:46
Tagged date                              : UTC 2019-09-04 12:49:47
Codec configuration box                  : avcC

Audio
ID                                       : 2
Format                                   : AAC LC
Format/Info                              : Advanced Audio Codec Low Complexity
Codec ID                                 : mp4a-40-2
Duration                                 : 56 s 533 ms
Bit rate mode                            : Variable
Bit rate                                 : 236 kb/s
Maximum bit rate                         : 263 kb/s
Channel(s)                               : 2 channels
Channel layout                           : L R
Sampling rate                            : 48.0 kHz
Frame rate                               : 46.875 FPS (1024 SPF)
Compression mode                         : Lossy
Stream size                              : 1.59 MiB (6%)
Encoded date                             : UTC 2019-09-04 12:49:45
Tagged date                              : UTC 2019-09-04 12:49:47

Other Files in this Torrent
Extras/[NoobSubs] Violet Evergarden Menu 01 (720p Blu-ray 8bit AAC).mp4
beta
Anime DDL+NZB mirror
Current Time: 16/12/2019 07:37



About/FAQs