File Size305.4 MB (320,196,150 bytes)
DownloadClickNUpload | Jheberg | MultiUp
  • BdUpload
  • DownAce
  • Fichier
  • FileCloud
  • Filerio
  • FilesCdn
  • IndiShare
  • Kbagi
  • Turbobit
  • UpToBox
  • Uppit
| OpenLoad | SolidFiles | ZippyShare
Sendspace: Part1, Part2
HashesCRC32: 4EF90645, MD5: B4C53D5B9192B280FEC267D051514C3F, SHA1: 09D596665194658C79AE29F5C702238C3B2934FB, SHA256: 3CDEFC92E197A40382E3DD571F6FF511FFD1C4B89F7E64D94CDF559E78A7D0AD, ED2K: 9CC9883774BF3A3562CDB36F48ACAA50
Screenshots
screenshotscreenshotscreenshotscreenshotscreenshot
Additional Info
General
Complete name                            : [NoobSubs] Violet Evergarden 08 (720p Blu-ray 8bit AAC).mp4
Format                                   : MPEG-4
Format profile                           : Base Media
Codec ID                                 : isom (isom/avc1)
File size                                : 305 MiB
Duration                                 : 23 min 42 s
Overall bit rate mode                    : Variable
Overall bit rate                         : 1 801 kb/s
Movie name                               : [NoobSubs] Violet Evergarden 08 (720p Blu-ray 8bit AAC)
Album                                    : Violet Evergarden
Track name/Position                      : 8
Track name/Total                         : 14
Performer                                : Subs: [Vivid-Asenshi] - [Komorebi]
Encoded date                             : UTC 2019-09-04 09:10:55
Tagged date                              : UTC 2019-09-04 22:47:38
replaygain_track_peak                    : 1.030000
replaygain_track_minmax                  : 98,183
replaygain_track_gain                    : +1.26 dB

Video
ID                                       : 1
Format                                   : AVC
Format/Info                              : Advanced Video Codec
Format profile                           : High@L4
Format settings                          : CABAC / 6 Ref Frames
Format settings, CABAC                   : Yes
Format settings, ReFrames                : 6 frames
Codec ID                                 : avc1
Codec ID/Info                            : Advanced Video Coding
Duration                                 : 23 min 42 s
Bit rate                                 : 1 551 kb/s
Maximum bit rate                         : 9 011 kb/s
Width                                    : 1 280 pixels
Height                                   : 720 pixels
Display aspect ratio                     : 16:9
Frame rate mode                          : Constant
Frame rate                               : 23.976 (24000/1001) FPS
Color space                              : YUV
Chroma subsampling                       : 4:2:0
Bit depth                                : 8 bits
Scan type                                : Progressive
Bits/(Pixel*Frame)                       : 0.070
Stream size                              : 263 MiB (86%)
Title                                    : 264@GPAC0.7.0-rev0-gbd5c9af-master
Writing library                          : x264 core 157 r2935 545de2f
Encoding settings                        : cabac=1 / ref=6 / deblock=1:-1:-1 / analyse=0x3:0x133 / me=umh / subme=10 / psy=1 / psy_rd=1.00:0.00 / mixed_ref=1 / me_range=24 / chroma_me=1 / trellis=2 / 8x8dct=1 / cqm=0 / deadzone=21,11 / fast_pskip=1 / chroma_qp_offset=-2 / threads=12 / lookahead_threads=2 / sliced_threads=0 / nr=0 / decimate=1 / interlaced=0 / bluray_compat=0 / constrained_intra=0 / bframes=7 / b_pyramid=2 / b_adapt=2 / b_bias=0 / direct=3 / weightb=1 / open_gop=0 / weightp=2 / keyint=250 / keyint_min=23 / scenecut=40 / intra_refresh=0 / rc_lookahead=60 / rc=crf / mbtree=1 / crf=17.3 / qcomp=0.60 / qpmin=0 / qpmax=69 / qpstep=4 / ip_ratio=1.40 / aq=1:1.20
Encoded date                             : UTC 2019-09-04 09:10:55
Tagged date                              : UTC 2019-09-04 09:10:57
Codec configuration box                  : avcC

Audio
ID                                       : 2
Format                                   : AAC LC
Format/Info                              : Advanced Audio Codec Low Complexity
Codec ID                                 : mp4a-40-2
Duration                                 : 23 min 42 s
Bit rate mode                            : Variable
Bit rate                                 : 246 kb/s
Maximum bit rate                         : 314 kb/s
Channel(s)                               : 2 channels
Channel layout                           : L R
Sampling rate                            : 48.0 kHz
Frame rate                               : 46.875 FPS (1024 SPF)
Compression mode                         : Lossy
Stream size                              : 41.7 MiB (14%)
Encoded date                             : UTC 2019-09-04 09:10:26
Tagged date                              : UTC 2019-09-04 09:10:57

Other Files in this Torrent
[NoobSubs] Violet Evergarden 08 (720p Blu-ray 8bit AAC).mp4
beta
Anime DDL+NZB mirror
Current Time: 22/11/2019 02:00



About/FAQs