Extras/[NoobSubs] Violet Evergarden Menu Bonus 04 (720p Blu-ray 8bit AAC).mp4


File Size27.30 MB (28,623,302 bytes)
DownloadClickNUpload | Jheberg | MultiUp
  • BdUpload
  • DownAce
  • Fichier
  • FileCloud
  • Filerio
  • FilesCdn
  • IndiShare
  • Kbagi
  • Turbobit
  • UpToBox
  • Uppit
| OpenLoad | Sendspace | SolidFiles | ZippyShare
HashesCRC32: A4358EB2, MD5: 03EC5F1C632DA5BF52122264B97A9AA4, SHA1: 6F390B998AB5CC74021E9365E9D835BC353740CF, SHA256: A5458A6707B66833205DB5E999252C6F2641373193058B10C4AD4EFC1ACF1ED4, ED2K: 38C2F50CF9584B7FCC6C1C67E4B31B8E
Screenshots
screenshot
Additional Info
General
Complete name                            : [NoobSubs] Violet Evergarden Menu Bonus 04 (720p Blu-ray 8bit AAC).mp4
Format                                   : MPEG-4
Format profile                           : Base Media
Codec ID                                 : isom (isom/avc1)
File size                                : 27.3 MiB
Duration                                 : 1 min 20 s
Overall bit rate mode                    : Variable
Overall bit rate                         : 2 861 kb/s
Movie name                               : [NoobSubs] Violet Evergarden Menu Bonus 04 (720p Blu-ray 8bit AAC)
Album                                    : Violet Evergarden
Track name/Position                      : 4
Track name/Total                         : 4
Performer                                : Subs: None
Encoded date                             : UTC 2019-09-04 12:53:57
Tagged date                              : UTC 2019-09-04 22:44:24
replaygain_undo                          : -4,-4
replaygain_track_peak                    : 0.460000
replaygain_track_minmax                  : 108,170
replaygain_track_gain                    : +1.21 dB

Video
ID                                       : 1
Format                                   : AVC
Format/Info                              : Advanced Video Codec
Format profile                           : High@L4
Format settings                          : CABAC / 6 Ref Frames
Format settings, CABAC                   : Yes
Format settings, ReFrames                : 6 frames
Codec ID                                 : avc1
Codec ID/Info                            : Advanced Video Coding
Duration                                 : 1 min 20 s
Bit rate                                 : 2 719 kb/s
Maximum bit rate                         : 17.5 Mb/s
Width                                    : 1 280 pixels
Height                                   : 720 pixels
Display aspect ratio                     : 16:9
Frame rate mode                          : Constant
Frame rate                               : 23.976 (24000/1001) FPS
Color space                              : YUV
Chroma subsampling                       : 4:2:0
Bit depth                                : 8 bits
Scan type                                : Progressive
Bits/(Pixel*Frame)                       : 0.123
Stream size                              : 25.9 MiB (95%)
Title                                    : 264@GPAC0.7.0-rev0-gbd5c9af-master
Writing library                          : x264 core 157 r2935 545de2f
Encoding settings                        : cabac=1 / ref=6 / deblock=1:-1:-1 / analyse=0x3:0x133 / me=umh / subme=10 / psy=1 / psy_rd=1.00:0.00 / mixed_ref=1 / me_range=24 / chroma_me=1 / trellis=2 / 8x8dct=1 / cqm=0 / deadzone=21,11 / fast_pskip=1 / chroma_qp_offset=-2 / threads=12 / lookahead_threads=2 / sliced_threads=0 / nr=0 / decimate=1 / interlaced=0 / bluray_compat=0 / constrained_intra=0 / bframes=7 / b_pyramid=2 / b_adapt=2 / b_bias=0 / direct=3 / weightb=1 / open_gop=0 / weightp=2 / keyint=250 / keyint_min=23 / scenecut=40 / intra_refresh=0 / rc_lookahead=60 / rc=crf / mbtree=1 / crf=17.3 / qcomp=0.60 / qpmin=0 / qpmax=69 / qpstep=4 / ip_ratio=1.40 / aq=1:1.20
Encoded date                             : UTC 2019-09-04 12:53:57
Tagged date                              : UTC 2019-09-04 12:53:57
Codec configuration box                  : avcC

Audio
ID                                       : 2
Format                                   : AAC LC
Format/Info                              : Advanced Audio Codec Low Complexity
Codec ID                                 : mp4a-40-2
Duration                                 : 42 s 453 ms
Bit rate mode                            : Variable
Bit rate                                 : 265 kb/s
Maximum bit rate                         : 273 kb/s
Channel(s)                               : 2 channels
Channel layout                           : L R
Sampling rate                            : 48.0 kHz
Frame rate                               : 46.875 FPS (1024 SPF)
Compression mode                         : Lossy
Stream size                              : 1.33 MiB (5%)
Encoded date                             : UTC 2019-09-04 12:53:56
Tagged date                              : UTC 2019-09-04 12:53:57

Other Files in this Torrent
Extras/[NoobSubs] Violet Evergarden Menu Bonus 04 (720p Blu-ray 8bit AAC).mp4
beta
Anime DDL+NZB mirror
Current Time: 17/11/2019 19:42



About/FAQs