File Size563.5 MB (590,880,482 bytes)
DownloadAnonFiles | ClickNUpload | DropAPK | Free
MultiUp: Part1
  • BdUpload
  • DownAce
  • Fichier
  • FileCloud
  • Filerio
  • FilesCdn
  • IndiShare
  • Kbagi
  • Turbobit
  • UpToBox
  • Uppit
, Part2
  • BdUpload
  • DownAce
  • Fichier
  • FileCloud
  • Filerio
  • FilesCdn
  • IndiShare
  • Kbagi
  • Turbobit
  • UpToBox
  • Uppit

Sendspace: Part1, Part2
ZippyShare: Part1, Part2
HashesCRC32: 552008A3, MD5: A75F69893F8872EA5E18C004EC849A35, SHA1: 21836393B09A4070470B81E6D27D83E57F9FCC1A, SHA256: A86107B96B337E3D8E32A5B6C054B30858CE46BB89674A4191D4823CF4DCEE50, ED2K: 14BB3EA4062893491B217062D084094F
Screenshots
screenshotscreenshotscreenshotscreenshotscreenshot
Additional Info
General
Complete name                            : [NoobSubs] Sword Art Online - Alicization - War of Underworld 08 (720p Blu-ray 8bit AAC).mp4
Format                                   : MPEG-4
Format profile                           : Base Media
Codec ID                                 : isom (isom/avc1)
File size                                : 564 MiB
Duration                                 : 23 min 40 s
Overall bit rate mode                    : Variable
Overall bit rate                         : 3 329 kb/s
Movie name                               : [NoobSubs] Sword Art Online - Alicization - War of Underworld 08 (720p Blu-ray 8bit AAC)
Album                                    : Sword Art Online: Alicization - War of Underworld
Track name/Position                      : 8
Track name/Total                         : 12
Performer                                : Subs: Honorifics [MTBB]
Encoded date                             : UTC 2020-09-19 05:55:49
Tagged date                              : UTC 2020-09-19 17:14:05
replaygain_undo                          : 4,4
replaygain_track_peak                    : 0.640000
replaygain_track_minmax                  : 100,190
replaygain_track_gain                    : +0.91 dB

Video
ID                                       : 1
Format                                   : AVC
Format/Info                              : Advanced Video Codec
Format profile                           : High@L4
Format settings                          : CABAC / 6 Ref Frames
Format settings, CABAC                   : Yes
Format settings, ReFrames                : 6 frames
Codec ID                                 : avc1
Codec ID/Info                            : Advanced Video Coding
Duration                                 : 23 min 39 s
Bit rate                                 : 3 053 kb/s
Maximum bit rate                         : 30.6 Mb/s
Width                                    : 1 280 pixels
Height                                   : 720 pixels
Display aspect ratio                     : 16:9
Frame rate mode                          : Constant
Frame rate                               : 23.976 (24000/1001) FPS
Color space                              : YUV
Chroma subsampling                       : 4:2:0
Bit depth                                : 8 bits
Scan type                                : Progressive
Bits/(Pixel*Frame)                       : 0.138
Stream size                              : 517 MiB (92%)
Title                                    : 264@GPAC0.8.0-rev1-gc1990d5c-master
Writing library                          : x264 core 157 r2935 545de2f
Encoding settings                        : cabac=1 / ref=6 / deblock=1:0:0 / analyse=0x3:0x133 / me=umh / subme=10 / psy=1 / psy_rd=1.00:0.00 / mixed_ref=1 / me_range=24 / chroma_me=1 / trellis=2 / 8x8dct=1 / cqm=0 / deadzone=21,11 / fast_pskip=1 / chroma_qp_offset=-2 / threads=12 / lookahead_threads=2 / sliced_threads=0 / nr=0 / decimate=1 / interlaced=0 / bluray_compat=0 / constrained_intra=0 / bframes=7 / b_pyramid=2 / b_adapt=2 / b_bias=0 / direct=3 / weightb=1 / open_gop=0 / weightp=2 / keyint=250 / keyint_min=23 / scenecut=40 / intra_refresh=0 / rc_lookahead=60 / rc=crf / mbtree=1 / crf=17.3 / qcomp=0.60 / qpmin=0 / qpmax=69 / qpstep=4 / ip_ratio=1.40 / aq=1:1.20
Encoded date                             : UTC 2020-09-19 05:55:49
Tagged date                              : UTC 2020-09-19 05:55:55
Codec configuration box                  : avcC

Audio
ID                                       : 2
Format                                   : AAC LC
Format/Info                              : Advanced Audio Codec Low Complexity
Codec ID                                 : mp4a-40-2
Duration                                 : 23 min 40 s
Bit rate mode                            : Variable
Bit rate                                 : 273 kb/s
Maximum bit rate                         : 358 kb/s
Channel(s)                               : 2 channels
Channel layout                           : L R
Sampling rate                            : 48.0 kHz
Frame rate                               : 46.875 FPS (1024 SPF)
Compression mode                         : Lossy
Stream size                              : 46.1 MiB (8%)
Encoded date                             : UTC 2020-09-19 05:55:23
Tagged date                              : UTC 2020-09-19 05:55:55

Other Files in this Torrent
[NoobSubs] Sword Art Online - Alicization - War of Underworld 08 (720p Blu-ray 8bit AAC).mp4
beta
Anime DDL+NZB mirror
Current Time: 05/03/2021 06:30



About/FAQs