Extras/[NoobSubs] Sword Art Online - Alicization - War of Underworld NCOP01A (720p Blu-ray 8bit AAC).mp4


File Size65.33 MB (68,507,784 bytes)
DownloadAnonFiles | ClickNUpload | DropAPK | Free | MultiUp
  • BdUpload
  • DownAce
  • Fichier
  • FileCloud
  • Filerio
  • FilesCdn
  • IndiShare
  • Kbagi
  • Turbobit
  • UpToBox
  • Uppit
| Sendspace | ZippyShare
HashesCRC32: CADDE58A, MD5: B4732182B1566A712BC673DAD0060FC9, SHA1: 12E49B31E82ABE9E9F5BA7D0D667B2FD86595063, SHA256: 7CFC005FE72D83E1CBB19B1BF34E6937468AE389A87A09EE1B2D4489B92EDA47, ED2K: DF81F92C723F8F73E579A17E27682386
Screenshots
screenshotscreenshot
Additional Info
General
Complete name                            : [NoobSubs] Sword Art Online - Alicization - War of Underworld NCOP01A (720p Blu-ray 8bit AAC).mp4
Format                                   : MPEG-4
Format profile                           : Base Media
Codec ID                                 : isom (isom/avc1)
File size                                : 65.3 MiB
Duration                                 : 1 min 30 s
Overall bit rate mode                    : Variable
Overall bit rate                         : 6 081 kb/s
Movie name                               : [NoobSubs] Sword Art Online - Alicization - War of Underworld NCOP01A (720p Blu-ray 8bit AAC)
Album                                    : Sword Art Online: Alicization - War of Underworld
Track name/Position                      : 1
Track name/Total                         : 3
Performer                                : Subs: None
Encoded date                             : UTC 2020-09-19 07:38:34
Tagged date                              : UTC 2020-09-19 17:15:57
replaygain_undo                          : 2,2
replaygain_track_peak                    : 0.230000
replaygain_track_minmax                  : 86,179
replaygain_track_gain                    : +1.64 dB

Video
ID                                       : 1
Format                                   : AVC
Format/Info                              : Advanced Video Codec
Format profile                           : High@L4
Format settings                          : CABAC / 6 Ref Frames
Format settings, CABAC                   : Yes
Format settings, ReFrames                : 6 frames
Codec ID                                 : avc1
Codec ID/Info                            : Advanced Video Coding
Duration                                 : 1 min 30 s
Bit rate                                 : 5 776 kb/s
Maximum bit rate                         : 18.3 Mb/s
Width                                    : 1 280 pixels
Height                                   : 720 pixels
Display aspect ratio                     : 16:9
Frame rate mode                          : Constant
Frame rate                               : 23.976 (24000/1001) FPS
Color space                              : YUV
Chroma subsampling                       : 4:2:0
Bit depth                                : 8 bits
Scan type                                : Progressive
Bits/(Pixel*Frame)                       : 0.261
Stream size                              : 62.0 MiB (95%)
Title                                    : 264@GPAC0.8.0-rev1-gc1990d5c-master
Writing library                          : x264 core 157 r2935 545de2f
Encoding settings                        : cabac=1 / ref=6 / deblock=1:0:0 / analyse=0x3:0x133 / me=umh / subme=10 / psy=1 / psy_rd=1.00:0.00 / mixed_ref=1 / me_range=24 / chroma_me=1 / trellis=2 / 8x8dct=1 / cqm=0 / deadzone=21,11 / fast_pskip=1 / chroma_qp_offset=-2 / threads=12 / lookahead_threads=2 / sliced_threads=0 / nr=0 / decimate=1 / interlaced=0 / bluray_compat=0 / constrained_intra=0 / bframes=7 / b_pyramid=2 / b_adapt=2 / b_bias=0 / direct=3 / weightb=1 / open_gop=0 / weightp=2 / keyint=250 / keyint_min=23 / scenecut=40 / intra_refresh=0 / rc_lookahead=60 / rc=crf / mbtree=1 / crf=17.3 / qcomp=0.60 / qpmin=0 / qpmax=69 / qpstep=4 / ip_ratio=1.40 / aq=1:1.20
Encoded date                             : UTC 2020-09-19 07:38:34
Tagged date                              : UTC 2020-09-19 07:38:35
Codec configuration box                  : avcC

Audio
ID                                       : 2
Format                                   : AAC LC
Format/Info                              : Advanced Audio Codec Low Complexity
Codec ID                                 : mp4a-40-2
Duration                                 : 1 min 30 s
Bit rate mode                            : Variable
Bit rate                                 : 306 kb/s
Maximum bit rate                         : 322 kb/s
Channel(s)                               : 2 channels
Channel layout                           : L R
Sampling rate                            : 48.0 kHz
Frame rate                               : 46.875 FPS (1024 SPF)
Compression mode                         : Lossy
Stream size                              : 3.28 MiB (5%)
Encoded date                             : UTC 2020-09-19 07:38:32
Tagged date                              : UTC 2020-09-19 07:38:35

Other Files in this Torrent
Extras/[NoobSubs] Sword Art Online - Alicization - War of Underworld NCOP01A (720p Blu-ray 8bit AAC).mp4
beta
Anime DDL+NZB mirror
Current Time: 02/03/2021 14:43



About/FAQs