Extras/[NoobSubs] Sword Art Online - Alicization - War of Underworld NCOP01C (720p Blu-ray 8bit AAC).mp4


File Size64.48 MB (67,608,807 bytes)
DownloadAnonFiles | ClickNUpload | DropAPK | Free | MultiUp
  • BdUpload
  • DownAce
  • Fichier
  • FileCloud
  • Filerio
  • FilesCdn
  • IndiShare
  • Kbagi
  • Turbobit
  • UpToBox
  • Uppit
| Sendspace | ZippyShare
HashesCRC32: 438239FB, MD5: 4CACF533285EF07CE48DB16221D6703A, SHA1: 8BC55C67CCB4E84D62F9B88755FA6DE8B35FC34D, SHA256: A7CCE09B0CC2812075183F8774B85E778C1968800F1808201218F4FB0BAFA802, ED2K: 92578B6ED21CA6FF4241718A731F2B2D
Screenshots
screenshotscreenshot
Additional Info
General
Complete name                            : [NoobSubs] Sword Art Online - Alicization - War of Underworld NCOP01C (720p Blu-ray 8bit AAC).mp4
Format                                   : MPEG-4
Format profile                           : Base Media
Codec ID                                 : isom (isom/avc1)
File size                                : 64.5 MiB
Duration                                 : 1 min 30 s
Overall bit rate mode                    : Variable
Overall bit rate                         : 6 001 kb/s
Movie name                               : [NoobSubs] Sword Art Online - Alicization - War of Underworld NCOP01C (720p Blu-ray 8bit AAC)
Album                                    : Sword Art Online: Alicization - War of Underworld
Track name/Position                      : 3
Track name/Total                         : 3
Performer                                : Subs: None
Encoded date                             : UTC 2020-09-19 07:43:54
Tagged date                              : UTC 2020-09-19 17:16:04
replaygain_undo                          : 2,2
replaygain_track_peak                    : 0.230000
replaygain_track_minmax                  : 86,177
replaygain_track_gain                    : +1.64 dB

Video
ID                                       : 1
Format                                   : AVC
Format/Info                              : Advanced Video Codec
Format profile                           : High@L4
Format settings                          : CABAC / 6 Ref Frames
Format settings, CABAC                   : Yes
Format settings, ReFrames                : 6 frames
Codec ID                                 : avc1
Codec ID/Info                            : Advanced Video Coding
Duration                                 : 1 min 30 s
Bit rate                                 : 5 696 kb/s
Maximum bit rate                         : 18.3 Mb/s
Width                                    : 1 280 pixels
Height                                   : 720 pixels
Display aspect ratio                     : 16:9
Frame rate mode                          : Constant
Frame rate                               : 23.976 (24000/1001) FPS
Color space                              : YUV
Chroma subsampling                       : 4:2:0
Bit depth                                : 8 bits
Scan type                                : Progressive
Bits/(Pixel*Frame)                       : 0.258
Stream size                              : 61.1 MiB (95%)
Title                                    : 264@GPAC0.8.0-rev1-gc1990d5c-master
Writing library                          : x264 core 157 r2935 545de2f
Encoding settings                        : cabac=1 / ref=6 / deblock=1:0:0 / analyse=0x3:0x133 / me=umh / subme=10 / psy=1 / psy_rd=1.00:0.00 / mixed_ref=1 / me_range=24 / chroma_me=1 / trellis=2 / 8x8dct=1 / cqm=0 / deadzone=21,11 / fast_pskip=1 / chroma_qp_offset=-2 / threads=12 / lookahead_threads=2 / sliced_threads=0 / nr=0 / decimate=1 / interlaced=0 / bluray_compat=0 / constrained_intra=0 / bframes=7 / b_pyramid=2 / b_adapt=2 / b_bias=0 / direct=3 / weightb=1 / open_gop=0 / weightp=2 / keyint=250 / keyint_min=23 / scenecut=40 / intra_refresh=0 / rc_lookahead=60 / rc=crf / mbtree=1 / crf=17.3 / qcomp=0.60 / qpmin=0 / qpmax=69 / qpstep=4 / ip_ratio=1.40 / aq=1:1.20
Encoded date                             : UTC 2020-09-19 07:43:54
Tagged date                              : UTC 2020-09-19 07:43:55
Codec configuration box                  : avcC

Audio
ID                                       : 2
Format                                   : AAC LC
Format/Info                              : Advanced Audio Codec Low Complexity
Codec ID                                 : mp4a-40-2
Duration                                 : 1 min 30 s
Bit rate mode                            : Variable
Bit rate                                 : 305 kb/s
Maximum bit rate                         : 321 kb/s
Channel(s)                               : 2 channels
Channel layout                           : L R
Sampling rate                            : 48.0 kHz
Frame rate                               : 46.875 FPS (1024 SPF)
Compression mode                         : Lossy
Stream size                              : 3.28 MiB (5%)
Encoded date                             : UTC 2020-09-19 07:43:52
Tagged date                              : UTC 2020-09-19 07:43:55

Other Files in this Torrent
Extras/[NoobSubs] Sword Art Online - Alicization - War of Underworld NCOP01C (720p Blu-ray 8bit AAC).mp4
beta
Anime DDL+NZB mirror
Current Time: 25/01/2021 03:17



About/FAQs