Extras/[NoobSubs] Sword Art Online - Alicization - War of Underworld NCED (720p Blu-ray 8bit AAC).mp4


File Size37.45 MB (39,267,799 bytes)
DownloadAnonFiles | ClickNUpload | DropAPK | Free | MultiUp
  • BdUpload
  • DownAce
  • Fichier
  • FileCloud
  • Filerio
  • FilesCdn
  • IndiShare
  • Kbagi
  • Turbobit
  • UpToBox
  • Uppit
| Sendspace | ZippyShare
HashesCRC32: 0D46F45F, MD5: B31AF81CD0252A834E6A87355FE7D21E, SHA1: 261BAD6D866DE58F0B096AAA3C0592C8878ECD4A, SHA256: 2635AEC55401504B7FD2E93542208FF4B178C15C6C199A2EE38A612DF2CD8F8F, ED2K: BA10C0012B1E7664173F5F4812375D98
Screenshots
screenshotscreenshot
Additional Info
General
Complete name                            : [NoobSubs] Sword Art Online - Alicization - War of Underworld NCED (720p Blu-ray 8bit AAC).mp4
Format                                   : MPEG-4
Format profile                           : Base Media
Codec ID                                 : isom (isom/avc1)
File size                                : 37.4 MiB
Duration                                 : 1 min 30 s
Overall bit rate mode                    : Variable
Overall bit rate                         : 3 485 kb/s
Movie name                               : [NoobSubs] Sword Art Online - Alicization - War of Underworld NCED (720p Blu-ray 8bit AAC)
Album                                    : Sword Art Online: Alicization - War of Underworld
Track name/Position                      : 1
Track name/Total                         : 1
Performer                                : Subs: None
Encoded date                             : UTC 2020-09-19 07:35:54
Tagged date                              : UTC 2020-09-19 17:15:53
replaygain_undo                          : 1,1
replaygain_track_peak                    : 0.340000
replaygain_track_minmax                  : 87,172
replaygain_track_gain                    : +0.96 dB

Video
ID                                       : 1
Format                                   : AVC
Format/Info                              : Advanced Video Codec
Format profile                           : High@L4
Format settings                          : CABAC / 6 Ref Frames
Format settings, CABAC                   : Yes
Format settings, ReFrames                : 6 frames
Codec ID                                 : avc1
Codec ID/Info                            : Advanced Video Coding
Duration                                 : 1 min 30 s
Bit rate                                 : 3 212 kb/s
Maximum bit rate                         : 7 392 kb/s
Width                                    : 1 280 pixels
Height                                   : 720 pixels
Display aspect ratio                     : 16:9
Frame rate mode                          : Constant
Frame rate                               : 23.976 (24000/1001) FPS
Color space                              : YUV
Chroma subsampling                       : 4:2:0
Bit depth                                : 8 bits
Scan type                                : Progressive
Bits/(Pixel*Frame)                       : 0.145
Stream size                              : 34.5 MiB (92%)
Title                                    : 264@GPAC0.8.0-rev1-gc1990d5c-master
Writing library                          : x264 core 157 r2935 545de2f
Encoding settings                        : cabac=1 / ref=6 / deblock=1:0:0 / analyse=0x3:0x133 / me=umh / subme=10 / psy=1 / psy_rd=1.00:0.00 / mixed_ref=1 / me_range=24 / chroma_me=1 / trellis=2 / 8x8dct=1 / cqm=0 / deadzone=21,11 / fast_pskip=1 / chroma_qp_offset=-2 / threads=12 / lookahead_threads=2 / sliced_threads=0 / nr=0 / decimate=1 / interlaced=0 / bluray_compat=0 / constrained_intra=0 / bframes=7 / b_pyramid=2 / b_adapt=2 / b_bias=0 / direct=3 / weightb=1 / open_gop=0 / weightp=2 / keyint=250 / keyint_min=23 / scenecut=40 / intra_refresh=0 / rc_lookahead=60 / rc=crf / mbtree=1 / crf=17.3 / qcomp=0.60 / qpmin=0 / qpmax=69 / qpstep=4 / ip_ratio=1.40 / aq=1:1.20
Encoded date                             : UTC 2020-09-19 07:35:54
Tagged date                              : UTC 2020-09-19 07:35:54
Codec configuration box                  : avcC

Audio
ID                                       : 2
Format                                   : AAC LC
Format/Info                              : Advanced Audio Codec Low Complexity
Codec ID                                 : mp4a-40-2
Duration                                 : 1 min 30 s
Bit rate mode                            : Variable
Bit rate                                 : 272 kb/s
Maximum bit rate                         : 310 kb/s
Channel(s)                               : 2 channels
Channel layout                           : L R
Sampling rate                            : 48.0 kHz
Frame rate                               : 46.875 FPS (1024 SPF)
Compression mode                         : Lossy
Stream size                              : 2.93 MiB (8%)
Encoded date                             : UTC 2020-09-19 07:35:52
Tagged date                              : UTC 2020-09-19 07:35:54

Other Files in this Torrent
Extras/[NoobSubs] Sword Art Online - Alicization - War of Underworld NCED (720p Blu-ray 8bit AAC).mp4
beta
Anime DDL+NZB mirror
Current Time: 25/01/2021 05:07



About/FAQs