Net-juu no Susume - 09 [720p] [MX-ES-EN-DE-FR-IT-PT] [B3717170].mkv


File Size305.1 MB (319,928,133 bytes)
DownloadClickNUpload | Go4Up | Jheberg | MultiUp | OpenLoad | SolidFiles | Upfile.mobi
Sendspace: Part1, Part2
HashesCRC32: B3717170, MD5: CCD69F8FA5D86BD17E4AE8B5CE8470DE, SHA1: 5DFA3F3F69C51FB9B3C48B8EFF0C812EAA1C15E0, SHA256: 9EC51F02B5895730B62D6A68FB85AC90068951B6BC09165C7DB107C257BE79F2, ED2K: FAD47FDB7A9C09A173D587F0A1336AA5
Screenshots
screenshotscreenshotscreenshotscreenshotscreenshot
SubtitlesAll Attachments | Latin American Spanish [spa, ASS], Castilian Spanish [spa, ASS], eng [ASS], ger [ASS], fre [ASS], ita [ASS], Brasil [por, ASS]
Additional Info
General
Unique ID                                : 244581809889971771992349624564807510498 (0xB800BE3F34D3033D98E01FD0287A29E2)
Complete name                            : Net-juu no Susume - 09 [720p] [MX-ES-EN-DE-FR-IT-PT] [B3717170].mkv
Format                                   : Matroska
Format version                           : Version 4 / Version 2
File size                                : 305 MiB
Duration                                 : 23 min 40 s
Overall bit rate                         : 1 802 kb/s
Movie name                               : Net-juu no Susume - 09 [720p] [MX-ES-EN-DE-FR-IT-PT] - WWW.INTERCAMBIOSVIRTUALES.ORG
Encoded date                             : UTC 2017-12-09 03:13:49
Writing application                      : mkvmerge v9.5.0 ('Quiet Fire') 64bit
Writing library                          : libebml v1.3.4 + libmatroska v1.4.5
Attachments                              : OpenSans-Semibold.ttf

Video
ID                                       : 1
Format                                   : AVC
Format/Info                              : Advanced Video Codec
Format profile                           : High@L4
Format settings, CABAC                   : Yes
Format settings, ReFrames                : 6 frames
Codec ID                                 : V_MPEG4/ISO/AVC
Duration                                 : 23 min 40 s
Bit rate                                 : 1 669 kb/s
Width                                    : 1 280 pixels
Height                                   : 720 pixels
Display aspect ratio                     : 16:9
Frame rate mode                          : Constant
Frame rate                               : 23.976 (24000/1001) FPS
Color space                              : YUV
Chroma subsampling                       : 4:2:0
Bit depth                                : 8 bits
Scan type                                : Progressive
Bits/(Pixel*Frame)                       : 0.076
Stream size                              : 283 MiB (93%)
Writing library                          : x264 core 142
Encoding settings                        : cabac=1 / ref=6 / deblock=1:1:1 / analyse=0x3:0x113 / me=umh / subme=8 / psy=1 / psy_rd=0.40:0.00 / mixed_ref=1 / me_range=16 / chroma_me=1 / trellis=1 / 8x8dct=1 / cqm=0 / deadzone=21,11 / fast_pskip=1 / chroma_qp_offset=-2 / threads=10 / lookahead_threads=1 / sliced_threads=0 / nr=0 / decimate=1 / interlaced=0 / bluray_compat=0 / constrained_intra=0 / bframes=3 / b_pyramid=2 / b_adapt=2 / b_bias=0 / direct=3 / weightb=1 / open_gop=0 / weightp=2 / keyint=48 / keyint_min=24 / scenecut=40 / intra_refresh=0 / rc_lookahead=48 / rc=crf / mbtree=1 / crf=15.0 / qcomp=0.60 / qpmin=0 / qpmax=69 / qpstep=4 / vbv_maxrate=4000 / vbv_bufsize=6000 / crf_max=0.0 / nal_hrd=none / filler=0 / ip_ratio=1.40 / aq=1:0.60
Language                                 : Japanese
Default                                  : Yes
Forced                                   : Yes

Audio
ID                                       : 2
Format                                   : AAC
Format/Info                              : Advanced Audio Codec
Format profile                           : LC
Codec ID                                 : A_AAC
Duration                                 : 23 min 40 s
Bit rate                                 : 128 kb/s
Channel(s)                               : 2 channels
Channel positions                        : Front: L R
Sampling rate                            : 44.1 kHz
Frame rate                               : 43.066 FPS (1024 spf)
Compression mode                         : Lossy
Delay relative to video                  : -83 ms
Stream size                              : 21.7 MiB (7%)
Default                                  : Yes
Forced                                   : No

Text #1
ID                                       : 3
Format                                   : ASS
Codec ID                                 : S_TEXT/ASS
Codec ID/Info                            : Advanced Sub Station Alpha
Duration                                 : 21 min 50 s
Bit rate                                 : 101 b/s
Count of elements                        : 284
Compression mode                         : Lossless
Stream size                              : 16.3 KiB (0%)
Title                                    : Latin American Spanish
Language                                 : Spanish
Default                                  : Yes
Forced                                   : Yes

Text #2
ID                                       : 4
Format                                   : ASS
Codec ID                                 : S_TEXT/ASS
Codec ID/Info                            : Advanced Sub Station Alpha
Duration                                 : 21 min 50 s
Bit rate                                 : 101 b/s
Count of elements                        : 283
Compression mode                         : Lossless
Stream size                              : 16.3 KiB (0%)
Title                                    : Castilian Spanish
Language                                 : Spanish
Default                                  : No
Forced                                   : No

Text #3
ID                                       : 5
Format                                   : ASS
Codec ID                                 : S_TEXT/ASS
Codec ID/Info                            : Advanced Sub Station Alpha
Duration                                 : 21 min 50 s
Bit rate                                 : 132 b/s
Count of elements                        : 323
Compression mode                         : Lossless
Stream size                              : 21.1 KiB (0%)
Language                                 : English
Default                                  : No
Forced                                   : No

Text #4
ID                                       : 6
Format                                   : ASS
Codec ID                                 : S_TEXT/ASS
Codec ID/Info                            : Advanced Sub Station Alpha
Duration                                 : 21 min 50 s
Bit rate                                 : 122 b/s
Count of elements                        : 313
Compression mode                         : Lossless
Stream size                              : 19.6 KiB (0%)
Language                                 : German
Default                                  : No
Forced                                   : No

Text #5
ID                                       : 7
Format                                   : ASS
Codec ID                                 : S_TEXT/ASS
Codec ID/Info                            : Advanced Sub Station Alpha
Duration                                 : 21 min 49 s
Bit rate                                 : 108 b/s
Count of elements                        : 270
Compression mode                         : Lossless
Stream size                              : 17.4 KiB (0%)
Language                                 : French
Default                                  : No
Forced                                   : No

Text #6
ID                                       : 8
Format                                   : ASS
Codec ID                                 : S_TEXT/ASS
Codec ID/Info                            : Advanced Sub Station Alpha
Duration                                 : 21 min 50 s
Bit rate                                 : 135 b/s
Count of elements                        : 328
Compression mode                         : Lossless
Stream size                              : 21.7 KiB (0%)
Language                                 : Italian
Default                                  : No
Forced                                   : No

Text #7
ID                                       : 9
Format                                   : ASS
Codec ID                                 : S_TEXT/ASS
Codec ID/Info                            : Advanced Sub Station Alpha
Duration                                 : 21 min 50 s
Bit rate                                 : 128 b/s
Count of elements                        : 318
Compression mode                         : Lossless
Stream size                              : 20.5 KiB (0%)
Title                                    : Brasil
Language                                 : Portuguese
Default                                  : No
Forced                                   : No

Other Files in this Torrent
Net-juu no Susume - 09 [720p] [MX-ES-EN-DE-FR-IT-PT] [B3717170].mkv
beta
Anime DDL+NZB mirror
Current Time: 29/05/2024 21:39



About/FAQs

Discord