Net-juu no Susume - 06 [720p] [MX-ES-EN-DE-FR-IT-PT] [FF0C4582].mkv


File Size285.8 MB (299,690,802 bytes)
DownloadClickNUpload | Go4Up | Jheberg | MultiUp | OpenLoad | Sendspace | SolidFiles | Upfile.mobi
HashesCRC32: FF0C4582, MD5: 07BA7036AF40E31D42C6F799F7AB2C84, SHA1: AAEB219B3AAAA5694546F1E27E9150DD3829B27A, SHA256: 22FD98DCE0E63982492EB8B64BFF9F1FB19124737F27025944D4A92C1573D431, ED2K: 577C5BAB091F87F078035E082786D612
Screenshots
screenshotscreenshotscreenshotscreenshotscreenshot
SubtitlesAll Attachments | Latin American Spanish [spa, ASS], Castilian Spanish [spa, ASS], eng [ASS], ger [ASS], fre [ASS], ita [ASS], Brasil [por, ASS]
Additional Info
General
Unique ID                                : 214109011773515853400464199662577643590 (0xA113E54D7F84420982B915CCBB2BF046)
Complete name                            : Net-juu no Susume - 06 [720p] [MX-ES-EN-DE-FR-IT-PT] [FF0C4582].mkv
Format                                   : Matroska
Format version                           : Version 4 / Version 2
File size                                : 286 MiB
Duration                                 : 23 min 40 s
Overall bit rate                         : 1 688 kb/s
Movie name                               : Net-juu no Susume - 06 [720p] [MX-ES-EN-DE-FR-IT-PT] - WWW.INTERCAMBIOSVIRTUALES.ORG
Encoded date                             : UTC 2017-12-09 03:13:22
Writing application                      : mkvmerge v9.5.0 ('Quiet Fire') 64bit
Writing library                          : libebml v1.3.4 + libmatroska v1.4.5
Attachments                              : OpenSans-Semibold.ttf

Video
ID                                       : 1
Format                                   : AVC
Format/Info                              : Advanced Video Codec
Format profile                           : High@L4
Format settings, CABAC                   : Yes
Format settings, ReFrames                : 6 frames
Codec ID                                 : V_MPEG4/ISO/AVC
Duration                                 : 23 min 40 s
Bit rate                                 : 1 555 kb/s
Width                                    : 1 280 pixels
Height                                   : 720 pixels
Display aspect ratio                     : 16:9
Frame rate mode                          : Constant
Frame rate                               : 23.976 (24000/1001) FPS
Color space                              : YUV
Chroma subsampling                       : 4:2:0
Bit depth                                : 8 bits
Scan type                                : Progressive
Bits/(Pixel*Frame)                       : 0.070
Stream size                              : 263 MiB (92%)
Writing library                          : x264 core 142
Encoding settings                        : cabac=1 / ref=6 / deblock=1:1:1 / analyse=0x3:0x113 / me=umh / subme=8 / psy=1 / psy_rd=0.40:0.00 / mixed_ref=1 / me_range=16 / chroma_me=1 / trellis=1 / 8x8dct=1 / cqm=0 / deadzone=21,11 / fast_pskip=1 / chroma_qp_offset=-2 / threads=10 / lookahead_threads=1 / sliced_threads=0 / nr=0 / decimate=1 / interlaced=0 / bluray_compat=0 / constrained_intra=0 / bframes=3 / b_pyramid=2 / b_adapt=2 / b_bias=0 / direct=3 / weightb=1 / open_gop=0 / weightp=2 / keyint=48 / keyint_min=24 / scenecut=40 / intra_refresh=0 / rc_lookahead=48 / rc=crf / mbtree=1 / crf=15.0 / qcomp=0.60 / qpmin=0 / qpmax=69 / qpstep=4 / vbv_maxrate=4000 / vbv_bufsize=6000 / crf_max=0.0 / nal_hrd=none / filler=0 / ip_ratio=1.40 / aq=1:0.60
Language                                 : Japanese
Default                                  : Yes
Forced                                   : Yes

Audio
ID                                       : 2
Format                                   : AAC
Format/Info                              : Advanced Audio Codec
Format profile                           : LC
Codec ID                                 : A_AAC
Duration                                 : 23 min 40 s
Bit rate                                 : 128 kb/s
Channel(s)                               : 2 channels
Channel positions                        : Front: L R
Sampling rate                            : 44.1 kHz
Frame rate                               : 43.066 FPS (1024 spf)
Compression mode                         : Lossy
Delay relative to video                  : -83 ms
Stream size                              : 21.7 MiB (8%)
Default                                  : Yes
Forced                                   : No

Text #1
ID                                       : 3
Format                                   : ASS
Codec ID                                 : S_TEXT/ASS
Codec ID/Info                            : Advanced Sub Station Alpha
Duration                                 : 22 min 2 s
Bit rate                                 : 123 b/s
Count of elements                        : 335
Compression mode                         : Lossless
Stream size                              : 19.9 KiB (0%)
Title                                    : Latin American Spanish
Language                                 : Spanish
Default                                  : Yes
Forced                                   : Yes

Text #2
ID                                       : 4
Format                                   : ASS
Codec ID                                 : S_TEXT/ASS
Codec ID/Info                            : Advanced Sub Station Alpha
Duration                                 : 22 min 2 s
Bit rate                                 : 123 b/s
Count of elements                        : 335
Compression mode                         : Lossless
Stream size                              : 19.9 KiB (0%)
Title                                    : Castilian Spanish
Language                                 : Spanish
Default                                  : No
Forced                                   : No

Text #3
ID                                       : 5
Format                                   : ASS
Codec ID                                 : S_TEXT/ASS
Codec ID/Info                            : Advanced Sub Station Alpha
Duration                                 : 22 min 2 s
Bit rate                                 : 165 b/s
Count of elements                        : 363
Compression mode                         : Lossless
Stream size                              : 26.7 KiB (0%)
Language                                 : English
Default                                  : No
Forced                                   : No

Text #4
ID                                       : 6
Format                                   : ASS
Codec ID                                 : S_TEXT/ASS
Codec ID/Info                            : Advanced Sub Station Alpha
Duration                                 : 22 min 2 s
Bit rate                                 : 153 b/s
Count of elements                        : 375
Compression mode                         : Lossless
Stream size                              : 24.8 KiB (0%)
Language                                 : German
Default                                  : No
Forced                                   : No

Text #5
ID                                       : 7
Format                                   : ASS
Codec ID                                 : S_TEXT/ASS
Codec ID/Info                            : Advanced Sub Station Alpha
Duration                                 : 22 min 1 s
Bit rate                                 : 135 b/s
Count of elements                        : 333
Compression mode                         : Lossless
Stream size                              : 21.8 KiB (0%)
Language                                 : French
Default                                  : No
Forced                                   : No

Text #6
ID                                       : 8
Format                                   : ASS
Codec ID                                 : S_TEXT/ASS
Codec ID/Info                            : Advanced Sub Station Alpha
Duration                                 : 22 min 2 s
Bit rate                                 : 167 b/s
Count of elements                        : 373
Compression mode                         : Lossless
Stream size                              : 27.0 KiB (0%)
Language                                 : Italian
Default                                  : No
Forced                                   : No

Text #7
ID                                       : 9
Format                                   : ASS
Codec ID                                 : S_TEXT/ASS
Codec ID/Info                            : Advanced Sub Station Alpha
Duration                                 : 22 min 2 s
Bit rate                                 : 164 b/s
Count of elements                        : 356
Compression mode                         : Lossless
Stream size                              : 26.5 KiB (0%)
Title                                    : Brasil
Language                                 : Portuguese
Default                                  : No
Forced                                   : No

Other Files in this Torrent
Net-juu no Susume - 06 [720p] [MX-ES-EN-DE-FR-IT-PT] [FF0C4582].mkv
beta
Anime DDL+NZB mirror
Current Time: 13/06/2024 08:29



About/FAQs

Discord