Net-juu no Susume - 02 [720p] [MX-ES-EN-DE-FR-IT-PT] [7EE39747].mkv


File Size322.6 MB (338,262,887 bytes)
DownloadClickNUpload | Go4Up | Jheberg | MultiUp
  • ClickNupload
  • Fichier
  • Filerio
  • Free
  • Fufox
  • HugeFiles
  • Mightyupload
  • ToutBox
  • Turbobit
  • UpToBox
  • Uplea
  • UploadBaz
  • Uploadable
  • Uploaded
  • Uppit
  • Userscloud
| OpenLoad | SolidFiles | Upfile.mobi
Sendspace: Part1, Part2
HashesCRC32: 7EE39747, MD5: B386D24EFBB71AE4F5E59F1121F1B9E9, SHA1: CDB8E6EBD19B118609D46915582D00AB254FE5FF, SHA256: 3F400D1249C0DD349B41BFBAAEA6C39E1A85CEC7FDDC7CBDF470752DF5EF027F, ED2K: 4047C85FA6D80C0EC89059E6B62B77C7
Screenshots
screenshotscreenshotscreenshotscreenshotscreenshot
SubtitlesAll Attachments | Latin American Spanish [spa, ASS], Castilian Spanish [spa, ASS], eng [ASS], ger [ASS], fre [ASS], ita [ASS], Brasil [por, ASS]
Additional Info
General
Unique ID                                : 200459381515813663642944042034322518491 (0x96CF12929A0BD1D3A9F081761AFCB1DB)
Complete name                            : Net-juu no Susume - 02 [720p] [MX-ES-EN-DE-FR-IT-PT] [7EE39747].mkv
Format                                   : Matroska
Format version                           : Version 4 / Version 2
File size                                : 323 MiB
Duration                                 : 23 min 40 s
Overall bit rate                         : 1 905 kb/s
Movie name                               : Net-juu no Susume - 02 [720p] [MX-ES-EN-DE-FR-IT-PT] - WWW.INTERCAMBIOSVIRTUALES.ORG
Encoded date                             : UTC 2017-10-13 18:48:47
Writing application                      : mkvmerge v9.5.0 ('Quiet Fire') 64bit
Writing library                          : libebml v1.3.4 + libmatroska v1.4.5
Attachments                              : OpenSans-Semibold.ttf

Video
ID                                       : 1
Format                                   : AVC
Format/Info                              : Advanced Video Codec
Format profile                           : High@L4
Format settings, CABAC                   : Yes
Format settings, ReFrames                : 6 frames
Codec ID                                 : V_MPEG4/ISO/AVC
Duration                                 : 23 min 40 s
Bit rate                                 : 1 773 kb/s
Width                                    : 1 280 pixels
Height                                   : 720 pixels
Display aspect ratio                     : 16:9
Frame rate mode                          : Constant
Frame rate                               : 23.976 (24000/1001) FPS
Color space                              : YUV
Chroma subsampling                       : 4:2:0
Bit depth                                : 8 bits
Scan type                                : Progressive
Bits/(Pixel*Frame)                       : 0.080
Stream size                              : 300 MiB (93%)
Writing library                          : x264 core 142
Encoding settings                        : cabac=1 / ref=6 / deblock=1:1:1 / analyse=0x3:0x113 / me=umh / subme=8 / psy=1 / psy_rd=0.40:0.00 / mixed_ref=1 / me_range=16 / chroma_me=1 / trellis=1 / 8x8dct=1 / cqm=0 / deadzone=21,11 / fast_pskip=1 / chroma_qp_offset=-2 / threads=10 / lookahead_threads=1 / sliced_threads=0 / nr=0 / decimate=1 / interlaced=0 / bluray_compat=0 / constrained_intra=0 / bframes=3 / b_pyramid=2 / b_adapt=2 / b_bias=0 / direct=3 / weightb=1 / open_gop=0 / weightp=2 / keyint=48 / keyint_min=24 / scenecut=40 / intra_refresh=0 / rc_lookahead=48 / rc=crf / mbtree=1 / crf=15.0 / qcomp=0.60 / qpmin=0 / qpmax=69 / qpstep=4 / vbv_maxrate=4000 / vbv_bufsize=6000 / crf_max=0.0 / nal_hrd=none / filler=0 / ip_ratio=1.40 / aq=1:0.60
Language                                 : Japanese
Default                                  : Yes
Forced                                   : Yes

Audio
ID                                       : 2
Format                                   : AAC
Format/Info                              : Advanced Audio Codec
Format profile                           : LC
Codec ID                                 : A_AAC
Duration                                 : 23 min 40 s
Bit rate                                 : 128 kb/s
Channel(s)                               : 2 channels
Channel positions                        : Front: L R
Sampling rate                            : 44.1 kHz
Frame rate                               : 43.066 FPS (1024 spf)
Compression mode                         : Lossy
Delay relative to video                  : -83 ms
Stream size                              : 21.7 MiB (7%)
Default                                  : Yes
Forced                                   : No

Text #1
ID                                       : 3
Format                                   : ASS
Codec ID                                 : S_TEXT/ASS
Codec ID/Info                            : Advanced Sub Station Alpha
Duration                                 : 22 min 10 s
Bit rate                                 : 129 b/s
Count of elements                        : 330
Compression mode                         : Lossless
Stream size                              : 21.0 KiB (0%)
Title                                    : Latin American Spanish
Language                                 : Spanish
Default                                  : Yes
Forced                                   : Yes

Text #2
ID                                       : 4
Format                                   : ASS
Codec ID                                 : S_TEXT/ASS
Codec ID/Info                            : Advanced Sub Station Alpha
Duration                                 : 22 min 10 s
Bit rate                                 : 129 b/s
Count of elements                        : 329
Compression mode                         : Lossless
Stream size                              : 21.0 KiB (0%)
Title                                    : Castilian Spanish
Language                                 : Spanish
Default                                  : No
Forced                                   : No

Text #3
ID                                       : 5
Format                                   : ASS
Codec ID                                 : S_TEXT/ASS
Codec ID/Info                            : Advanced Sub Station Alpha
Duration                                 : 22 min 10 s
Bit rate                                 : 139 b/s
Count of elements                        : 337
Compression mode                         : Lossless
Stream size                              : 22.7 KiB (0%)
Language                                 : English
Default                                  : No
Forced                                   : No

Text #4
ID                                       : 6
Format                                   : ASS
Codec ID                                 : S_TEXT/ASS
Codec ID/Info                            : Advanced Sub Station Alpha
Duration                                 : 22 min 9 s
Bit rate                                 : 141 b/s
Count of elements                        : 344
Compression mode                         : Lossless
Stream size                              : 23.0 KiB (0%)
Language                                 : German
Default                                  : No
Forced                                   : No

Text #5
ID                                       : 7
Format                                   : ASS
Codec ID                                 : S_TEXT/ASS
Codec ID/Info                            : Advanced Sub Station Alpha
Duration                                 : 22 min 9 s
Bit rate                                 : 129 b/s
Count of elements                        : 307
Compression mode                         : Lossless
Stream size                              : 21.0 KiB (0%)
Language                                 : French
Default                                  : No
Forced                                   : No

Text #6
ID                                       : 8
Format                                   : ASS
Codec ID                                 : S_TEXT/ASS
Codec ID/Info                            : Advanced Sub Station Alpha
Duration                                 : 22 min 10 s
Bit rate                                 : 140 b/s
Count of elements                        : 333
Compression mode                         : Lossless
Stream size                              : 22.8 KiB (0%)
Language                                 : Italian
Default                                  : No
Forced                                   : No

Text #7
ID                                       : 9
Format                                   : ASS
Codec ID                                 : S_TEXT/ASS
Codec ID/Info                            : Advanced Sub Station Alpha
Duration                                 : 22 min 10 s
Bit rate                                 : 136 b/s
Count of elements                        : 336
Compression mode                         : Lossless
Stream size                              : 22.2 KiB (0%)
Title                                    : Brasil
Language                                 : Portuguese
Default                                  : No
Forced                                   : No

Other Files in this Torrent
Net-juu no Susume - 02 [720p] [MX-ES-EN-DE-FR-IT-PT] [7EE39747].mkv
beta
Anime DDL+NZB mirror
Current Time: 13/06/2024 06:37



About/FAQs

Discord