Net-juu no Susume - 07 [720p] [MX-ES-EN-DE-FR-IT-PT] [A62873A8].mkv


File Size299.6 MB (314,108,866 bytes)
DownloadClickNUpload | Go4Up | Jheberg | MultiUp | OpenLoad | Sendspace | SolidFiles | Upfile.mobi
HashesCRC32: A62873A8, MD5: AE1FF6DC651E7B3A7E9A4F8CA196B8E2, SHA1: EE3BE561B8F9A9BB7CDB8A0D9234892895A96270, SHA256: 595D27CA3BA96C0F085765E1A455B6FF18530BBF5C6B5DD48F33E8276908B4EE, ED2K: B3D5451F0736CBCA7C75231450116DFF
Screenshots
screenshotscreenshotscreenshotscreenshotscreenshot
SubtitlesAll Attachments | Latin American Spanish [spa, ASS], Castilian Spanish [spa, ASS], eng [ASS], ger [ASS], fre [ASS], ita [ASS], Brasil [por, ASS]
Additional Info
General
Unique ID                                : 192496562783507641901424336363703024915 (0x90D17D4C4F2E33868914BEF33460BD13)
Complete name                            : Net-juu no Susume - 07 [720p] [MX-ES-EN-DE-FR-IT-PT] [A62873A8].mkv
Format                                   : Matroska
Format version                           : Version 4 / Version 2
File size                                : 300 MiB
Duration                                 : 23 min 41 s
Overall bit rate                         : 1 767 kb/s
Movie name                               : Net-juu no Susume - 07 [720p] [MX-ES-EN-DE-FR-IT-PT] - WWW.INTERCAMBIOSVIRTUALES.ORG
Encoded date                             : UTC 2017-12-09 03:11:43
Writing application                      : mkvmerge v9.5.0 ('Quiet Fire') 64bit
Writing library                          : libebml v1.3.4 + libmatroska v1.4.5
Attachments                              : OpenSans-Semibold.ttf

Video
ID                                       : 1
Format                                   : AVC
Format/Info                              : Advanced Video Codec
Format profile                           : High@L4
Format settings, CABAC                   : Yes
Format settings, ReFrames                : 6 frames
Codec ID                                 : V_MPEG4/ISO/AVC
Duration                                 : 23 min 40 s
Bit rate                                 : 1 636 kb/s
Width                                    : 1 280 pixels
Height                                   : 720 pixels
Display aspect ratio                     : 16:9
Frame rate mode                          : Constant
Frame rate                               : 23.976 (24000/1001) FPS
Color space                              : YUV
Chroma subsampling                       : 4:2:0
Bit depth                                : 8 bits
Scan type                                : Progressive
Bits/(Pixel*Frame)                       : 0.074
Stream size                              : 277 MiB (92%)
Writing library                          : x264 core 142
Encoding settings                        : cabac=1 / ref=6 / deblock=1:1:1 / analyse=0x3:0x113 / me=umh / subme=8 / psy=1 / psy_rd=0.40:0.00 / mixed_ref=1 / me_range=16 / chroma_me=1 / trellis=1 / 8x8dct=1 / cqm=0 / deadzone=21,11 / fast_pskip=1 / chroma_qp_offset=-2 / threads=10 / lookahead_threads=1 / sliced_threads=0 / nr=0 / decimate=1 / interlaced=0 / bluray_compat=0 / constrained_intra=0 / bframes=3 / b_pyramid=2 / b_adapt=2 / b_bias=0 / direct=3 / weightb=1 / open_gop=0 / weightp=2 / keyint=48 / keyint_min=24 / scenecut=40 / intra_refresh=0 / rc_lookahead=48 / rc=crf / mbtree=1 / crf=15.0 / qcomp=0.60 / qpmin=0 / qpmax=69 / qpstep=4 / vbv_maxrate=4000 / vbv_bufsize=6000 / crf_max=0.0 / nal_hrd=none / filler=0 / ip_ratio=1.40 / aq=1:0.60
Language                                 : Japanese
Default                                  : Yes
Forced                                   : Yes

Audio
ID                                       : 2
Format                                   : AAC
Format/Info                              : Advanced Audio Codec
Format profile                           : LC
Codec ID                                 : A_AAC
Duration                                 : 23 min 40 s
Bit rate                                 : 128 kb/s
Channel(s)                               : 2 channels
Channel positions                        : Front: L R
Sampling rate                            : 44.1 kHz
Frame rate                               : 43.066 FPS (1024 spf)
Compression mode                         : Lossy
Delay relative to video                  : -83 ms
Stream size                              : 21.7 MiB (7%)
Default                                  : Yes
Forced                                   : No

Text #1
ID                                       : 3
Format                                   : ASS
Codec ID                                 : S_TEXT/ASS
Codec ID/Info                            : Advanced Sub Station Alpha
Duration                                 : 22 min 9 s
Bit rate                                 : 145 b/s
Count of elements                        : 349
Compression mode                         : Lossless
Stream size                              : 23.7 KiB (0%)
Title                                    : Latin American Spanish
Language                                 : Spanish
Default                                  : Yes
Forced                                   : Yes

Text #2
ID                                       : 4
Format                                   : ASS
Codec ID                                 : S_TEXT/ASS
Codec ID/Info                            : Advanced Sub Station Alpha
Duration                                 : 22 min 9 s
Bit rate                                 : 144 b/s
Count of elements                        : 346
Compression mode                         : Lossless
Stream size                              : 23.4 KiB (0%)
Title                                    : Castilian Spanish
Language                                 : Spanish
Default                                  : No
Forced                                   : No

Text #3
ID                                       : 5
Format                                   : ASS
Codec ID                                 : S_TEXT/ASS
Codec ID/Info                            : Advanced Sub Station Alpha
Duration                                 : 22 min 9 s
Bit rate                                 : 191 b/s
Count of elements                        : 389
Compression mode                         : Lossless
Stream size                              : 31.1 KiB (0%)
Language                                 : English
Default                                  : No
Forced                                   : No

Text #4
ID                                       : 6
Format                                   : ASS
Codec ID                                 : S_TEXT/ASS
Codec ID/Info                            : Advanced Sub Station Alpha
Duration                                 : 22 min 11 s
Bit rate                                 : 161 b/s
Count of elements                        : 382
Compression mode                         : Lossless
Stream size                              : 26.3 KiB (0%)
Language                                 : German
Default                                  : No
Forced                                   : No

Text #5
ID                                       : 7
Format                                   : ASS
Codec ID                                 : S_TEXT/ASS
Codec ID/Info                            : Advanced Sub Station Alpha
Duration                                 : 22 min 8 s
Bit rate                                 : 147 b/s
Count of elements                        : 350
Compression mode                         : Lossless
Stream size                              : 23.8 KiB (0%)
Language                                 : French
Default                                  : No
Forced                                   : No

Text #6
ID                                       : 8
Format                                   : ASS
Codec ID                                 : S_TEXT/ASS
Codec ID/Info                            : Advanced Sub Station Alpha
Duration                                 : 22 min 9 s
Bit rate                                 : 189 b/s
Count of elements                        : 382
Compression mode                         : Lossless
Stream size                              : 30.8 KiB (0%)
Language                                 : Italian
Default                                  : No
Forced                                   : No

Text #7
ID                                       : 9
Format                                   : ASS
Codec ID                                 : S_TEXT/ASS
Codec ID/Info                            : Advanced Sub Station Alpha
Duration                                 : 22 min 9 s
Bit rate                                 : 186 b/s
Count of elements                        : 389
Compression mode                         : Lossless
Stream size                              : 30.2 KiB (0%)
Title                                    : Brasil
Language                                 : Portuguese
Default                                  : No
Forced                                   : No

Other Files in this Torrent
Net-juu no Susume - 07 [720p] [MX-ES-EN-DE-FR-IT-PT] [A62873A8].mkv
beta
Anime DDL+NZB mirror
Current Time: 29/05/2024 21:35



About/FAQs

Discord