File Size243.6 MB (255,399,099 bytes)
DownloadAnonFiles | ClickNUpload | DownloadGG | DropAPK | MultiUp
  • BdUpload
  • DownAce
  • Fichier
  • FileCloud
  • Filerio
  • FilesCdn
  • IndiShare
  • Kbagi
  • Turbobit
  • UpToBox
  • Uppit
| SolidFiles | ZippyShare
HashesCRC32: 159A76AC, MD5: E9D5503A6863588DC65C9F9AE14C134F, SHA1: 25C51E127F8A87DF918F2BE4A3BB94E653557C1F, SHA256: 18B5F64D1877B8152619710BA74B76B0AC6050C6D0A00B3ED534648D4A216C2F, ED2K: 3E80201DF2655D0F40B15C094ADC61F7
Screenshots
screenshotscreenshotscreenshotscreenshotscreenshot
SubtitlesAll Attachments | Full Subs [jpn, ASS], Signs / Songs [eng, ASS]
Additional Info
General
Unique ID                                : 338744427294155811318282669697264254679 (0xFED7CDB8DC8859DD37737B556C4BFED7)
Complete name                            : Net-juu no Susume - 01 - ♀ Irl, ♂ Online.mkv
Format                                   : Matroska
Format version                           : Version 4
File size                                : 244 MiB
Duration                                 : 24 min 14 s
Overall bit rate                         : 1 405 kb/s
Encoded date                             : UTC 2021-06-13 21:44:17
Writing application                      : mkvmerge v57.0.0 ('Till The End') 64-bit
Writing library                          : libebml v1.4.2 + libmatroska v1.6.4 / Lavf58.29.100
Attachments                              : AbelBecker Bold.ttf / Aero Matics Bold.ttf / AeroDB Normal.ttf / A-OTF-FUTOMINA101PR5-BOLD.OTF / A-OTF-Jun501Pro-Bold.otf / AXIS Std B.otf / FOT Manyo Sosho Std Stripped EB.otf / Fot-Dotgothic12std-M.otf / Gandhisans-Bold.otf / Gandhisans-Bolditalic.otf / HannaHandwriting.ttf

Video
ID                                       : 1
Format                                   : HEVC
Format/Info                              : High Efficiency Video Coding
Format profile                           : Main 10@L4.1@High
Codec ID                                 : V_MPEGH/ISO/HEVC
Duration                                 : 24 min 14 s
Bit rate                                 : 1 065 kb/s
Width                                    : 1 920 pixels
Height                                   : 1 080 pixels
Display aspect ratio                     : 16:9
Frame rate mode                          : Constant
Frame rate                               : 23.976 (24000/1001) FPS
Color space                              : YUV
Chroma subsampling                       : 4:2:0
Bit depth                                : 10 bits
Bits/(Pixel*Frame)                       : 0.021
Stream size                              : 185 MiB (76%)
Writing library                          : x265 3.2.1+1-b5c86a64bbbe:[Windows][GCC 9.2.0][64 bit] 10bit
Encoding settings                        : cpuid=1111039 / frame-threads=3 / numa-pools=12 / wpp / no-pmode / no-pme / no-psnr / no-ssim / log-level=2 / input-csp=1 / input-res=1920x1080 / interlace=0 / total-frames=0 / level-idc=41 / high-tier=1 / uhd-bd=0 / ref=3 / no-allow-non-conformance / no-repeat-headers / annexb / no-aud / no-hrd / info / hash=0 / no-temporal-layers / open-gop / min-keyint=24 / keyint=240 / gop-lookahead=0 / bframes=8 / b-adapt=2 / b-pyramid / bframe-bias=0 / rc-lookahead=20 / lookahead-slices=6 / scenecut=40 / radl=0 / no-splice / no-intra-refresh / ctu=64 / min-cu-size=8 / no-rect / no-amp / max-tu-size=32 / tu-inter-depth=1 / tu-intra-depth=1 / limit-tu=0 / rdoq-level=0 / dynamic-rd=0.00 / no-ssim-rd / signhide / no-tskip / nr-intra=0 / nr-inter=0 / no-constrained-intra / strong-intra-smoothing / max-merge=3 / limit-refs=1 / no-limit-modes / me=1 / subme=2 / merange=57 / temporal-mvp / no-hme / weightp / no-weightb / no-analyze-src-pics / deblock=0:0 / sao / no-sao-non-deblock / rd=3 / selective-sao=4 / early-skip / rskip / no-fast-intra / no-tskip-fast / no-cu-lossless / b-intra / no-splitrd-skip / rdpenalty=0 / psy-rd=1.00 / psy-rdoq=0.00 / no-rd-refine / no-lossless / cbqpoffs=0 / crqpoffs=0 / rc=crf / crf=22.0 / qcomp=0.60 / qpstep=4 / stats-write=0 / stats-read=0 / vbv-maxrate=50000 / vbv-bufsize=50000 / vbv-init=0.9 / crf-max=0.0 / crf-min=0.0 / ipratio=1.40 / pbratio=1.30 / aq-mode=3 / aq-strength=1.00 / cutree / zone-count=0 / no-strict-cbr / qg-size=32 / no-rc-grain / qpmax=69 / qpmin=0 / no-const-vbv / sar=1 / overscan=0 / videoformat=5 / range=0 / colorprim=1 / transfer=1 / colormatrix=1 / chromaloc=0 / display-window=0 / cll=0,0 / min-luma=0 / max-luma=1023 / log2-max-poc-lsb=8 / vui-timing-info / vui-hrd-info / slices=1 / no-opt-qp-pps / no-opt-ref-list-length-pps / no-multi-pass-opt-rps / scenecut-bias=0.05 / no-opt-cu-delta-qp / no-aq-motion / no-hdr / no-hdr-opt / no-dhdr10-opt / no-idr-recovery-sei / analysis-reuse-level=5 / scale-factor=0 / refine-intra=0 / refine-inter=0 / refine-mv=1 / refine-ctu-distortion=0 / limit-sao / ctu-info=0 / no-lowpass-dct / refine-analysis-type=0 / copy-pic=1 / max-ausize-factor=1.0 / no-dynamic-refine / no-single-sei / no-hevc-aq / no-svt / no-field / qp-adaptation-range=1.00
Default                                  : Yes
Forced                                   : No
Color range                              : Limited
Color primaries                          : BT.709
Transfer characteristics                 : BT.709
Matrix coefficients                      : BT.709

Audio #1
ID                                       : 2
Format                                   : Opus
Codec ID                                 : A_OPUS
Duration                                 : 24 min 14 s
Bit rate                                 : 119 kb/s
Channel(s)                               : 2 channels
Channel layout                           : L R
Sampling rate                            : 48.0 kHz
Frame rate                               : 50.000 FPS (960 SPF)
Compression mode                         : Lossy
Delay relative to video                  : -7 ms
Stream size                              : 20.7 MiB (9%)
Title                                    : Japanese
Language                                 : Japanese
Default                                  : Yes
Forced                                   : No

Audio #2
ID                                       : 3
Format                                   : Opus
Codec ID                                 : A_OPUS
Duration                                 : 24 min 14 s
Bit rate                                 : 124 kb/s
Channel(s)                               : 2 channels
Channel layout                           : L R
Sampling rate                            : 48.0 kHz
Frame rate                               : 50.000 FPS (960 SPF)
Compression mode                         : Lossy
Delay relative to video                  : -7 ms
Stream size                              : 21.4 MiB (9%)
Title                                    : English
Language                                 : English
Default                                  : No
Forced                                   : No

Text #1
ID                                       : 4
Format                                   : ASS
Codec ID                                 : S_TEXT/ASS
Codec ID/Info                            : Advanced Sub Station Alpha
Duration                                 : 23 min 58 s
Bit rate                                 : 1 120 b/s
Count of elements                        : 1848
Compression mode                         : Lossless
Stream size                              : 197 KiB (0%)
Title                                    : Full Subs
Language                                 : Japanese
Default                                  : Yes
Forced                                   : No

Text #2
ID                                       : 5
Format                                   : ASS
Codec ID                                 : S_TEXT/ASS
Codec ID/Info                            : Advanced Sub Station Alpha
Duration                                 : 23 min 58 s
Bit rate                                 : 1 047 b/s
Count of elements                        : 1594
Compression mode                         : Lossless
Stream size                              : 184 KiB (0%)
Title                                    : Signs / Songs
Language                                 : English
Default                                  : No
Forced                                   : No

Menu
00:00:00.000                             : :Opening "Saturday Night Question"
00:01:31.008                             : :Part A
00:10:36.052                             : :Part B
00:22:28.389                             : :Ending "Hikari, Hikari"
00:23:58.395                             : :Preview

Other Files in this Torrent
Net-juu no Susume - 01 - ♀ Irl, ♂ Online.mkv
beta
Anime DDL+NZB mirror
Current Time: 24/05/2024 22:19



About/FAQs

Discord