File Size38.18 MB (40,031,650 bytes)
DownloadAnonFiles | ClickNUpload | DropAPK | Free | MultiUp
  • BdUpload
  • DownAce
  • Fichier
  • FileCloud
  • Filerio
  • FilesCdn
  • IndiShare
  • Kbagi
  • Turbobit
  • UpToBox
  • Uppit
| SolidFiles | ZippyShare
HashesCRC32: 42F4180B, MD5: B75AEE660BD077D7F4AC98BF5BE40D95, SHA1: DF322916E99E9F94FAE066A41D967F9A357435C9, SHA256: C80B1B61235257A4CEDF6D9E6C9E29847DE734A4E3299F4D5096CE1D595CC9EA, ED2K: B1642EB2024579A68B6B7CB9BA95BB1A
Screenshots
screenshotscreenshot
Additional Info
General
Unique ID                                : 212559398964698488642574864424539711692 (0x9FE9737E16A2B141EF94CF683E7AE8CC)
Complete name                            : [MTBB] Yahari Ore no Seishun Love Comedy wa Machigatteiru. Kan - NCED.mkv
Format                                   : Matroska
Format version                           : Version 4
File size                                : 38.2 MiB
Duration                                 : 1 min 31 s
Overall bit rate                         : 3 516 kb/s
Encoded date                             : UTC 2020-10-07 01:17:10
Writing application                      : mkvmerge v19.0.0 ('Brave Captain') 64-bit
Writing library                          : libebml v1.3.5 + libmatroska v1.4.8

Video
ID                                       : 1
Format                                   : AVC
Format/Info                              : Advanced Video Codec
Format profile                           : High 10@L5.1
Format settings                          : CABAC / 16 Ref Frames
Format settings, CABAC                   : Yes
Format settings, ReFrames                : 16 frames
Codec ID                                 : V_MPEG4/ISO/AVC
Duration                                 : 1 min 30 s
Bit rate                                 : 3 225 kb/s
Width                                    : 1 920 pixels
Height                                   : 1 080 pixels
Display aspect ratio                     : 16:9
Frame rate mode                          : Constant
Frame rate                               : 23.976 (24000/1001) FPS
Color space                              : YUV
Chroma subsampling                       : 4:2:0
Bit depth                                : 10 bits
Scan type                                : Progressive
Bits/(Pixel*Frame)                       : 0.065
Stream size                              : 34.6 MiB (91%)
Writing library                          : x264 core 152 r2851 ba24899
Encoding settings                        : cabac=1 / ref=16 / deblock=1:0:0 / analyse=0x3:0x133 / me=umh / subme=10 / psy=1 / psy_rd=1.00:0.00 / mixed_ref=1 / me_range=24 / chroma_me=1 / trellis=2 / 8x8dct=1 / cqm=0 / deadzone=21,11 / fast_pskip=1 / chroma_qp_offset=-2 / threads=6 / lookahead_threads=1 / sliced_threads=0 / nr=0 / decimate=1 / interlaced=0 / bluray_compat=0 / constrained_intra=0 / bframes=8 / b_pyramid=2 / b_adapt=2 / b_bias=0 / direct=3 / weightb=1 / open_gop=0 / weightp=2 / keyint=250 / keyint_min=23 / scenecut=40 / intra_refresh=0 / rc_lookahead=60 / rc=crf / mbtree=1 / crf=15.0 / qcomp=0.60 / qpmin=0 / qpmax=81 / qpstep=4 / ip_ratio=1.40 / aq=1:1.00
Default                                  : Yes
Forced                                   : No
Color range                              : Limited
Matrix coefficients                      : BT.709

Audio
ID                                       : 2
Format                                   : AAC LC
Format/Info                              : Advanced Audio Codec Low Complexity
Codec ID                                 : A_AAC-2
Duration                                 : 1 min 31 s
Bit rate                                 : 324 kb/s
Channel(s)                               : 2 channels
Channel layout                           : L R
Sampling rate                            : 48.0 kHz
Frame rate                               : 46.875 FPS (1024 SPF)
Compression mode                         : Lossy
Stream size                              : 3.51 MiB (9%)
Language                                 : Japanese
Default                                  : Yes
Forced                                   : No

Other Files in this Torrent
NC/[MTBB] Yahari Ore no Seishun Love Comedy wa Machigatteiru. Kan - NCED.mkv
beta
Anime DDL+NZB mirror
Current Time: 24/09/2021 11:21



About/FAQs