File Size422.0 MB (442,536,578 bytes)
DownloadClickNUpload | DropAPK | Free | MultiUp
  • BdUpload
  • DownAce
  • Fichier
  • FileCloud
  • Filerio
  • FilesCdn
  • IndiShare
  • Kbagi
  • Turbobit
  • UpToBox
  • Uppit
| SolidFiles | ZippyShare
HashesCRC32: A6DD6DE2, MD5: 54D615BF236FF6DD7D1C6B50C5E12A93, SHA1: 5D221FB3D55C52EEA22CE42B14910F2D2ACD1A09, SHA256: F7AFF3FF3F669BBC98BE7A80CA8B5205FEBEFFBBC49DAFC5C7B6A03C9E5AA328, ED2K: B5D62FAB4A8E918D74A727348C8FB77C
Screenshots
screenshotscreenshotscreenshotscreenshotscreenshot
SubtitlesAll Attachments | eng [ASS], Honorifics [enm, ASS]
Additional Info
General
Unique ID                                : 321497980170281083638827170165548980896 (0xF1DE423A9F26405D712C6D4330711AA0)
Complete name                            : [MTBB] Yahari Ore no Seishun Love Comedy wa Machigatteiru. Kan - 03 [A6DD6DE2].mkv
Format                                   : Matroska
Format version                           : Version 4
File size                                : 422 MiB
Duration                                 : 24 min 6 s
Overall bit rate                         : 2 448 kb/s
Encoded date                             : UTC 2020-12-07 05:58:04
Writing application                      : mkvmerge v19.0.0 ('Brave Captain') 64-bit
Writing library                          : libebml v1.3.5 + libmatroska v1.4.8
Attachments                              : ARIAL-BOLDMT-STR.TTF / AVENIRLTSTD-MEDIUM.OTF / BAKERSIGNETBT-ROMAN.TTF / DID.TTF / GENTIUMBASIC.TTF / HELVETICANEUELT-ROMAN.TTF / JASMINEUPC.TTF / LINOTYPEFINNEGAN-MEDIUM.TTF / LINOTYPEFINNEGAN-MEDIUMIT.TTF / VAGRoundedBT-Black-Str.otf

Video
ID                                       : 1
Format                                   : AVC
Format/Info                              : Advanced Video Codec
Format profile                           : High 10@L5.1
Format settings                          : CABAC / 16 Ref Frames
Format settings, CABAC                   : Yes
Format settings, ReFrames                : 16 frames
Codec ID                                 : V_MPEG4/ISO/AVC
Duration                                 : 24 min 5 s
Bit rate                                 : 2 183 kb/s
Width                                    : 1 920 pixels
Height                                   : 1 080 pixels
Display aspect ratio                     : 16:9
Frame rate mode                          : Constant
Frame rate                               : 23.976 (24000/1001) FPS
Color space                              : YUV
Chroma subsampling                       : 4:2:0
Bit depth                                : 10 bits
Scan type                                : Progressive
Bits/(Pixel*Frame)                       : 0.044
Stream size                              : 376 MiB (89%)
Writing library                          : x264 core 152 r2851 ba24899
Encoding settings                        : cabac=1 / ref=16 / deblock=1:0:0 / analyse=0x3:0x133 / me=umh / subme=10 / psy=1 / psy_rd=1.00:0.00 / mixed_ref=1 / me_range=24 / chroma_me=1 / trellis=2 / 8x8dct=1 / cqm=0 / deadzone=21,11 / fast_pskip=1 / chroma_qp_offset=-2 / threads=6 / lookahead_threads=1 / sliced_threads=0 / nr=0 / decimate=1 / interlaced=0 / bluray_compat=0 / constrained_intra=0 / bframes=8 / b_pyramid=2 / b_adapt=2 / b_bias=0 / direct=3 / weightb=1 / open_gop=0 / weightp=2 / keyint=250 / keyint_min=23 / scenecut=40 / intra_refresh=0 / rc_lookahead=60 / rc=crf / mbtree=1 / crf=16.0 / qcomp=0.60 / qpmin=0 / qpmax=81 / qpstep=4 / ip_ratio=1.40 / aq=1:1.00
Default                                  : Yes
Forced                                   : No
Color range                              : Limited
Matrix coefficients                      : BT.709

Audio
ID                                       : 2
Format                                   : AAC LC
Format/Info                              : Advanced Audio Codec Low Complexity
Codec ID                                 : A_AAC-2
Duration                                 : 24 min 6 s
Bit rate                                 : 252 kb/s
Channel(s)                               : 2 channels
Channel layout                           : L R
Sampling rate                            : 48.0 kHz
Frame rate                               : 46.875 FPS (1024 SPF)
Compression mode                         : Lossy
Stream size                              : 43.4 MiB (10%)
Language                                 : Japanese
Default                                  : Yes
Forced                                   : No

Text #1
ID                                       : 3
Format                                   : ASS
Codec ID                                 : S_TEXT/ASS
Codec ID/Info                            : Advanced Sub Station Alpha
Duration                                 : 23 min 53 s
Bit rate                                 : 2 237 b/s
Count of elements                        : 2506
Compression mode                         : Lossless
Stream size                              : 392 KiB (0%)
Language                                 : English
Default                                  : Yes
Forced                                   : No

Text #2
ID                                       : 4
Format                                   : ASS
Codec ID                                 : S_TEXT/ASS
Codec ID/Info                            : Advanced Sub Station Alpha
Duration                                 : 23 min 53 s
Bit rate                                 : 2 237 b/s
Count of elements                        : 2506
Compression mode                         : Lossless
Stream size                              : 392 KiB (0%)
Title                                    : Honorifics
Language                                 : enm
Default                                  : No
Forced                                   : No

Menu
00:00:00.033                             : en:Intro
00:01:15.970                             : en:OP
00:02:46.010                             : en:Episode
00:22:05.050                             : en:ED
00:23:35.050                             : en:Preview

Other Files in this Torrent
[MTBB] Yahari Ore no Seishun Love Comedy wa Machigatteiru. Kan - 03 [A6DD6DE2].mkv
beta
Anime DDL+NZB mirror
Current Time: 24/09/2021 09:47



About/FAQs