File Size387.5 MB (406,307,212 bytes)
DownloadClickNUpload | DropAPK | Free | MultiUp
  • BdUpload
  • DownAce
  • Fichier
  • FileCloud
  • Filerio
  • FilesCdn
  • IndiShare
  • Kbagi
  • Turbobit
  • UpToBox
  • Uppit
| SolidFiles | ZippyShare
HashesCRC32: CB28DBCA, MD5: DE38E6749030760CB26B7D9EE82AB9A5, SHA1: A8F47340097A8748DFF32381B2421DEFB040575A, SHA256: 55CD924DD2DFCBD94824EA0A904260425BD72BC07953AAD72E03E79C0C61F022, ED2K: AE0C47B1454063F40BE4489FD2203D56
Screenshots
screenshotscreenshotscreenshotscreenshotscreenshot
SubtitlesAll Attachments | eng [ASS], Honorifics [enm, ASS]
Additional Info
General
Unique ID                                : 21183835525068507563231087587310544077 (0xFEFDBBAB198C1B9472780740571A4CD)
Complete name                            : [MTBB] Yahari Ore no Seishun Love Comedy wa Machigatteiru. Kan - 01 [CB28DBCA].mkv
Format                                   : Matroska
Format version                           : Version 4
File size                                : 387 MiB
Duration                                 : 24 min 6 s
Overall bit rate                         : 2 248 kb/s
Encoded date                             : UTC 2020-10-12 01:28:01
Writing application                      : mkvmerge v19.0.0 ('Brave Captain') 64-bit
Writing library                          : libebml v1.3.5 + libmatroska v1.4.8
Attachments                              : 1579-AvenirLTStd-Medium.otf / ARIALROUNDEDMTBOLDECLIPSE.TTF / AVENIRLTSTD-MEDIUM.OTF / Baker Signet BT.ttf / BAKERSIGNETBT-ROMAN.TTF / JASMINEUPC.TTF / LinotypeFinnegan Medium.ttf / LinotypeFinnegan MediumItalic.ttf / LINOTYPEFINNEGAN-MEDIUM.TTF / LINOTYPEFINNEGAN-MEDIUMIT.TTF / PROTOTYPE.TTF / upcjl.ttf / VAGRoundedBT-Black-Str.otf

Video
ID                                       : 1
Format                                   : AVC
Format/Info                              : Advanced Video Codec
Format profile                           : High 10@L5.1
Format settings                          : CABAC / 16 Ref Frames
Format settings, CABAC                   : Yes
Format settings, ReFrames                : 16 frames
Codec ID                                 : V_MPEG4/ISO/AVC
Duration                                 : 24 min 5 s
Bit rate                                 : 2 008 kb/s
Width                                    : 1 920 pixels
Height                                   : 1 080 pixels
Display aspect ratio                     : 16:9
Frame rate mode                          : Constant
Frame rate                               : 23.976 (24000/1001) FPS
Color space                              : YUV
Chroma subsampling                       : 4:2:0
Bit depth                                : 10 bits
Scan type                                : Progressive
Bits/(Pixel*Frame)                       : 0.040
Stream size                              : 346 MiB (89%)
Writing library                          : x264 core 152 r2851 ba24899
Encoding settings                        : cabac=1 / ref=16 / deblock=1:0:0 / analyse=0x3:0x133 / me=umh / subme=10 / psy=1 / psy_rd=1.00:0.00 / mixed_ref=1 / me_range=24 / chroma_me=1 / trellis=2 / 8x8dct=1 / cqm=0 / deadzone=21,11 / fast_pskip=1 / chroma_qp_offset=-2 / threads=6 / lookahead_threads=1 / sliced_threads=0 / nr=0 / decimate=1 / interlaced=0 / bluray_compat=0 / constrained_intra=0 / bframes=8 / b_pyramid=2 / b_adapt=2 / b_bias=0 / direct=3 / weightb=1 / open_gop=0 / weightp=2 / keyint=250 / keyint_min=23 / scenecut=40 / intra_refresh=0 / rc_lookahead=60 / rc=crf / mbtree=1 / crf=16.0 / qcomp=0.60 / qpmin=0 / qpmax=81 / qpstep=4 / ip_ratio=1.40 / aq=1:1.00
Default                                  : Yes
Forced                                   : No
Color range                              : Limited
Matrix coefficients                      : BT.709

Audio
ID                                       : 2
Format                                   : AAC LC
Format/Info                              : Advanced Audio Codec Low Complexity
Codec ID                                 : A_AAC-2
Duration                                 : 24 min 6 s
Bit rate                                 : 234 kb/s
Channel(s)                               : 2 channels
Channel layout                           : L R
Sampling rate                            : 48.0 kHz
Frame rate                               : 46.875 FPS (1024 SPF)
Compression mode                         : Lossy
Stream size                              : 40.3 MiB (10%)
Language                                 : Japanese
Default                                  : Yes
Forced                                   : No

Text #1
ID                                       : 3
Format                                   : ASS
Codec ID                                 : S_TEXT/ASS
Codec ID/Info                            : Advanced Sub Station Alpha
Duration                                 : 24 min 4 s
Bit rate                                 : 428 b/s
Count of elements                        : 598
Compression mode                         : Lossless
Stream size                              : 75.6 KiB (0%)
Language                                 : English
Default                                  : Yes
Forced                                   : No

Text #2
ID                                       : 4
Format                                   : ASS
Codec ID                                 : S_TEXT/ASS
Codec ID/Info                            : Advanced Sub Station Alpha
Duration                                 : 24 min 4 s
Bit rate                                 : 428 b/s
Count of elements                        : 598
Compression mode                         : Lossless
Stream size                              : 75.6 KiB (0%)
Title                                    : Honorifics
Language                                 : enm
Default                                  : No
Forced                                   : No

Menu
00:00:00.033                             : en:Intro
00:01:10.960                             : en:OP
00:02:41.010                             : en:Episode
00:22:05.010                             : en:ED
00:23:35.030                             : en:Preview

Other Files in this Torrent
[MTBB] Yahari Ore no Seishun Love Comedy wa Machigatteiru. Kan - 01 [CB28DBCA].mkv
beta
Anime DDL+NZB mirror
Current Time: 24/09/2021 12:47



About/FAQs