File Size380.9 MB (399,410,619 bytes)
DownloadAnonFiles | ClickNUpload | DropAPK | Free | MultiUp
  • BdUpload
  • DownAce
  • Fichier
  • FileCloud
  • Filerio
  • FilesCdn
  • IndiShare
  • Kbagi
  • Turbobit
  • UpToBox
  • Uppit
| SolidFiles | ZippyShare
HashesCRC32: A036CACD, MD5: 83F6FE05A21C7C86F4E1B992E5572E1B, SHA1: 5D15E5F6EF6AD633B272B7C54106DA8E480A1E28, SHA256: 91A38142D4DB7B627E5AA13240E883BC98AD87B114EAB3551A3474EB7AF7754E, ED2K: 1E5BD74EE18CA709DFBB57FFD95F8772
Screenshots
screenshotscreenshotscreenshotscreenshotscreenshot
SubtitlesAll Attachments | eng [ASS], Honorifics [enm, ASS]
Additional Info
General
Unique ID                                : 213014835393390342407853421984935050371 (0xA0412A3DFBA2FBBAC38BFA2AC74BFC83)
Complete name                            : [MTBB] Yahari Ore no Seishun Love Comedy wa Machigatteiru. Kan - 10 [A036CACD].mkv
Format                                   : Matroska
Format version                           : Version 4
File size                                : 381 MiB
Duration                                 : 24 min 7 s
Overall bit rate                         : 2 208 kb/s
Encoded date                             : UTC 2021-04-18 01:16:51
Writing application                      : mkvmerge v19.0.0 ('Brave Captain') 64-bit
Writing library                          : libebml v1.3.5 + libmatroska v1.4.8
Attachments                              : AVENIRLTSTD-MEDIUM.OTF / BAKERSIGNETBT-ROMAN.TTF / CORPID.OTF / LINOTYPEFINNEGAN-MEDIUM.TTF / LINOTYPEFINNEGAN-MEDIUMIT.TTF / PROTOTYPE.TTF / TRINITENO1-BOLD.OTF / VAGRoundedBT-Black-Str.otf

Video
ID                                       : 1
Format                                   : AVC
Format/Info                              : Advanced Video Codec
Format profile                           : High 10@L5.1
Format settings                          : CABAC / 16 Ref Frames
Format settings, CABAC                   : Yes
Format settings, ReFrames                : 16 frames
Codec ID                                 : V_MPEG4/ISO/AVC
Duration                                 : 24 min 5 s
Bit rate                                 : 1 993 kb/s
Width                                    : 1 920 pixels
Height                                   : 1 080 pixels
Display aspect ratio                     : 16:9
Frame rate mode                          : Constant
Frame rate                               : 23.976 (24000/1001) FPS
Color space                              : YUV
Chroma subsampling                       : 4:2:0
Bit depth                                : 10 bits
Scan type                                : Progressive
Bits/(Pixel*Frame)                       : 0.040
Stream size                              : 343 MiB (90%)
Writing library                          : x264 core 152 r2851 ba24899
Encoding settings                        : cabac=1 / ref=16 / deblock=1:0:0 / analyse=0x3:0x133 / me=umh / subme=10 / psy=1 / psy_rd=1.00:0.00 / mixed_ref=1 / me_range=24 / chroma_me=1 / trellis=2 / 8x8dct=1 / cqm=0 / deadzone=21,11 / fast_pskip=1 / chroma_qp_offset=-2 / threads=6 / lookahead_threads=1 / sliced_threads=0 / nr=0 / decimate=1 / interlaced=0 / bluray_compat=0 / constrained_intra=0 / bframes=8 / b_pyramid=2 / b_adapt=2 / b_bias=0 / direct=3 / weightb=1 / open_gop=0 / weightp=2 / keyint=250 / keyint_min=23 / scenecut=40 / intra_refresh=0 / rc_lookahead=60 / rc=crf / mbtree=1 / crf=16.0 / qcomp=0.60 / qpmin=0 / qpmax=81 / qpstep=4 / ip_ratio=1.40 / aq=1:1.00
Default                                  : Yes
Forced                                   : No
Color range                              : Limited
Matrix coefficients                      : BT.709

Audio
ID                                       : 2
Format                                   : AAC LC
Format/Info                              : Advanced Audio Codec Low Complexity
Codec ID                                 : A_AAC-2
Duration                                 : 24 min 6 s
Bit rate                                 : 213 kb/s
Channel(s)                               : 2 channels
Channel layout                           : L R
Sampling rate                            : 48.0 kHz
Frame rate                               : 46.875 FPS (1024 SPF)
Compression mode                         : Lossy
Stream size                              : 36.7 MiB (10%)
Language                                 : Japanese
Default                                  : Yes
Forced                                   : No

Text #1
ID                                       : 3
Format                                   : ASS
Codec ID                                 : S_TEXT/ASS
Codec ID/Info                            : Advanced Sub Station Alpha
Duration                                 : 24 min 5 s
Bit rate                                 : 446 b/s
Count of elements                        : 628
Compression mode                         : Lossless
Stream size                              : 78.8 KiB (0%)
Language                                 : English
Default                                  : Yes
Forced                                   : No

Text #2
ID                                       : 4
Format                                   : ASS
Codec ID                                 : S_TEXT/ASS
Codec ID/Info                            : Advanced Sub Station Alpha
Duration                                 : 24 min 5 s
Bit rate                                 : 446 b/s
Count of elements                        : 628
Compression mode                         : Lossless
Stream size                              : 78.8 KiB (0%)
Title                                    : Honorifics
Language                                 : enm
Default                                  : No
Forced                                   : No

Menu
00:00:00.033                             : en:Intro
00:00:48.020                             : en:OP
00:02:17.990                             : en:Episode
00:23:34.970                             : en:Preview

Other Files in this Torrent
[MTBB] Yahari Ore no Seishun Love Comedy wa Machigatteiru. Kan - 10 [A036CACD].mkv
beta
Anime DDL+NZB mirror
Current Time: 24/09/2021 11:12



About/FAQs