Movie 2 - Kino no Tabi - Country of Illness -For You- (2007) [Hi10p 5.1 AC3][kuchikirukia].mkv


File Size330.2 MB (346,245,497 bytes)
DownloadGo4Up | Jheberg | MultiUp
  • ClickNupload
  • Fichier
  • Filerio
  • Free
  • Fufox
  • HugeFiles
  • Mightyupload
  • ToutBox
  • Turbobit
  • UpToBox
  • Uplea
  • UploadBaz
  • Uploadable
  • Uploaded
  • Uppit
| SolidFiles
Sendspace: Part1, Part2
HashesCRC32: 113E2FAA, MD5: 4422CBC3A6C3570FEA149512DF8CA83D, SHA1: B7D4C807BA927EB734A33F2BCCAC09E5B2B52450, SHA256: FE043831F4E6950FD5B0BC23674D743BFB318DA3B3170D83B11ACD399E25A98C, ED2K: 291F3FA39BE944FA32D0EFD86976494C
Screenshots
screenshotscreenshotscreenshotscreenshotscreenshot
SubtitlesAll Attachments | ass [eng, ASS], srt [eng, SRT]
Additional Info
General
Unique ID                                : 197619633777423242631945848647508228919 (0x94AC28330EC1F4C9890B946ADFBEFB37)
Complete name                            : Movie 2 - Kino no Tabi - Country of Illness -For You- (2007) [Hi10p 5.1 AC3][kuchikirukia].mkv
Format                                   : Matroska
Format version                           : Version 4 / Version 2
File size                                : 330 MiB
Duration                                 : 29mn 11s
Overall bit rate                         : 1 582 Kbps
Encoded date                             : UTC 2015-09-08 12:40:46
Writing application                      : mkvmerge v8.3.0 ('Over the Horizon') 64bit
Writing library                          : libebml v1.3.1 + libmatroska v1.4.2
Attachements                             : LTe52140.ttf / TIMES.TTF / TIMESBD.TTF / TIMESBI.TTF / TIMESI.TTF / Virtue.ttf / LTe52140.ttf
DURATION                                 : 00:27:27.270000000
NUMBER_OF_FRAMES                         : 311
NUMBER_OF_BYTES                          : 10294
_STATISTICS_WRITING_APP                  : mkvmerge v8.3.0 ('Over the Horizon') 64bit
_STATISTICS_WRITING_DATE_UTC             : 2015-09-08 12:40:46
_STATISTICS_TAGS                         : BPS DURATION NUMBER_OF_FRAMES NUMBER_OF_BYTES

Video
ID                                       : 1
Format                                   : AVC
Format/Info                              : Advanced Video Codec
Format profile                           : High 10@L4.0
Format settings, CABAC                   : Yes
Format settings, ReFrames                : 16 frames
Codec ID                                 : V_MPEG4/ISO/AVC
Duration                                 : 29mn 11s
Bit rate                                 : 1 102 Kbps
Width                                    : 716 pixels
Height                                   : 480 pixels
Display aspect ratio                     : 16:9
Frame rate mode                          : Constant
Frame rate                               : 23.976 fps
Color space                              : YUV
Chroma subsampling                       : 4:2:0
Bit depth                                : 10 bits
Scan type                                : Progressive
Bits/(Pixel*Frame)                       : 0.134
Stream size                              : 230 MiB (70%)
Writing library                          : x264 core 148 r2597kMod e86f3a1
Encoding settings                        : cabac=1 / ref=16 / deblock=1:-2:-2 / analyse=0x3:0x133 / me=umh / subme=10 / psy=1 / fade_compensate=0.00 / psy_rd=1.00:0.00 / mixed_ref=1 / me_range=24 / chroma_me=1 / trellis=2 / 8x8dct=1 / cqm=0 / deadzone=21,11 / fast_pskip=0 / chroma_qp_offset=-2 / threads=8 / lookahead_threads=2 / sliced_threads=0 / nr=0 / decimate=1 / interlaced=0 / bluray_compat=0 / constrained_intra=0 / fgo=0 / bframes=16 / b_pyramid=2 / b_adapt=2 / b_bias=0 / direct=3 / weightb=1 / open_gop=0 / weightp=2 / keyint=288 / keyint_min=23 / scenecut=40 / intra_refresh=0 / rc_lookahead=60 / rc=crf / mbtree=1 / crf=15.0000 / qcomp=0.75 / qpmin=0 / qpmax=81 / qpstep=4 / ip_ratio=1.40 / aq=2:1.00
Default                                  : Yes
Forced                                   : No

Audio
ID                                       : 2
Format                                   : AC-3
Format/Info                              : Audio Coding 3
Mode extension                           : CM (complete main)
Format settings, Endianness              : Big
Codec ID                                 : A_AC3
Duration                                 : 29mn 11s
Bit rate mode                            : Constant
Bit rate                                 : 448 Kbps
Channel(s)                               : 6 channels
Channel positions                        : Front: L C R, Side: L R, LFE
Sampling rate                            : 48.0 KHz
Bit depth                                : 16 bits
Compression mode                         : Lossy
Stream size                              : 93.5 MiB (28%)
Title                                    : Surround 5.1
Language                                 : Japanese
Default                                  : Yes
Forced                                   : No
DURATION                                 : 00:29:11.104000000
NUMBER_OF_FRAMES                         : 54722
NUMBER_OF_BYTES                          : 98061824
_STATISTICS_WRITING_APP                  : mkvmerge v8.3.0 ('Over the Horizon') 64bit
_STATISTICS_WRITING_DATE_UTC             : 2015-09-08 12:40:46
_STATISTICS_TAGS                         : BPS DURATION NUMBER_OF_FRAMES NUMBER_OF_BYTES

Text #1
ID                                       : 3
Format                                   : ASS
Codec ID                                 : S_TEXT/ASS
Codec ID/Info                            : Advanced Sub Station Alpha
Compression mode                         : Lossless
Title                                    : ass
Language                                 : English
Default                                  : Yes
Forced                                   : No

Text #2
ID                                       : 4
Format                                   : UTF-8
Codec ID                                 : S_TEXT/UTF8
Codec ID/Info                            : UTF-8 Plain Text
Title                                    : srt
Language                                 : English
Default                                  : No
Forced                                   : No

Menu
00:00:00.000                             : en:Chapter 01
00:03:19.032                             : en:Chapter 02
00:09:00.573                             : en:Chapter 03
00:16:53.012                             : en:Chapter 04
00:24:36.758                             : en:Chapter 05
00:26:26.585                             : en:Chapter 06

Other Files in this Torrent
Movie 2 - Kino no Tabi - Country of Illness -For You- (2007) [Hi10p 5.1 AC3][kuchikirukia].mkv
beta
Anime DDL+NZB mirror
Current Time: 19/06/2024 20:58



About/FAQs

Discord