Mob Psycho 100 Mini/[NewbSubs] Mob Psycho 100 Mini 03 (1080p Blu-ray x265 AAC)[B677B6E3].mkv


File Size23.23 MB (24,360,555 bytes)
DownloadClickNUpload | Go4Up
  • DownAce
  • FileFactory
  • KatFile
  • Oboom
  • OwnDrives
  • Share-Online
  • SolidFiles
  • TusFiles
  • Uppit
  • UsersCloud
| Jheberg | MultiUp | OpenLoad | Sendspace | ZippyShare
HashesCRC32: B677B6E3, MD5: 8FF347BCA5087C77C9F7B08E0B329D2E, SHA1: C2205575DD260D5D98D7EDA782E3F5BD248FD4D8, SHA256: 15012AFE628D82439F123CC6CDC208B981F246E3434F73C4A7B1D9737BE15268, ED2K: AB50DE03ACB9E650C577F009232CD4C8
Screenshots
screenshotscreenshotscreenshotscreenshotscreenshot
SubtitlesAll Attachments | [kBaraka] [eng, ASS], [kBaraka] [eng, ASS]
Additional Info
General
Unique ID                                : 183005276883099592564727876101031167839 (0x89AD88C61D96C1963997DAFD2FC5875F)
Complete name                            : [NewbSubs] Mob Psycho 100 Mini 03 (1080p Blu-ray x265 AAC)[B677B6E3].mkv
Format                                   : Matroska
Format version                           : Version 4
File size                                : 23.2 MiB
Duration                                 : 8 min 10 s
Overall bit rate                         : 397 kb/s
Movie name                               : [NewbSubs] Mob Psycho 100 Mini 03 (1080p Blu-ray x265 AAC)
Track name/Position                      : 3
Track name/Total                         : 6
Encoded date                             : UTC 2019-03-03 15:21:07
Writing application                      : mkvmerge v31.0.0 ('Dolores In A Shoestand') 64-bit
Writing library                          : libebml v1.3.6 + libmatroska v1.4.9
Attachments                              : Montara-Gothic.ttf / Montara-Italic_0.ttf / PIXELADE.TTF / Pixel-Noir Skinny Short.ttf / Montara-Gothic.ttf / Montara-Italic_0.ttf / PIXELADE.TTF / Pixel-Noir Skinny Short.ttf
ARTIST                                   : Subs: [kBaraka]

Video
ID                                       : 1
Format                                   : HEVC
Format/Info                              : High Efficiency Video Coding
Format profile                           : Main 10@L4@Main
Codec ID                                 : V_MPEGH/ISO/HEVC
Duration                                 : 8 min 10 s
Bit rate                                 : 205 kb/s
Width                                    : 1 920 pixels
Height                                   : 1 080 pixels
Display aspect ratio                     : 16:9
Frame rate mode                          : Constant
Frame rate                               : 23.976 (24000/1001) FPS
Color space                              : YUV
Chroma subsampling                       : 4:2:0
Bit depth                                : 10 bits
Bits/(Pixel*Frame)                       : 0.004
Stream size                              : 12.0 MiB (52%)
Writing library                          : x265 3.0_Au+3-5b90dc59b57a:[Windows][clang 7.0.1][64 bit] 10bit
Encoding settings                        : cpuid=1049583 / frame-threads=9 / numa-pools=8 / wpp / no-pmode / no-pme / no-psnr / no-ssim / log-level=3 / input-csp=1 / input-res=1920x1080 / interlace=0 / total-frames=0 / level-idc=0 / high-tier=1 / uhd-bd=0 / ref=4 / allow-non-conformance / no-repeat-headers / annexb / no-aud / no-hrd / info / hash=0 / no-temporal-layers / open-gop / min-keyint=24 / keyint=240 / gop-lookahead=0 / bframes=5 / b-adapt=2 / b-pyramid / bframe-bias=0 / rc-lookahead=30 / lookahead-slices=4 / scenecut=40 / radl=0 / no-splice / no-intra-refresh / ctu=32 / min-cu-size=8 / rect / amp / max-tu-size=32 / tu-inter-depth=1 / tu-intra-depth=1 / limit-tu=0 / rdoq-level=2 / dynamic-rd=0.00 / no-ssim-rd / signhide / no-tskip / nr-intra=0 / nr-inter=0 / no-constrained-intra / strong-intra-smoothing / max-merge=3 / limit-refs=3 / limit-modes / me=3 / subme=3 / merange=25 / temporal-mvp / weightp / weightb / no-analyze-src-pics / deblock=0:0 / sao / no-sao-non-deblock / rd=4 / no-early-skip / rskip / no-fast-intra / no-tskip-fast / no-cu-lossless / no-b-intra / no-splitrd-skip / rdpenalty=0 / psy-rd=2.00 / psy-rdoq=1.00 / no-rd-refine / no-lossless / cbqpoffs=0 / crqpoffs=0 / rc=crf / crf=19.3 / qcomp=0.60 / qpstep=4 / stats-write=0 / stats-read=0 / ipratio=1.40 / pbratio=1.30 / aq-mode=2 / aq-strength=1.00 / cutree / zone-count=0 / no-strict-cbr / qg-size=32 / no-rc-grain / qpmax=69 / qpmin=0 / no-const-vbv / sar=1 / overscan=0 / videoformat=5 / range=0 / colorprim=1 / transfer=1 / colormatrix=1 / chromaloc=0 / display-window=0 / max-cll=0,0 / min-luma=0 / max-luma=1023 / log2-max-poc-lsb=8 / vui-timing-info / vui-hrd-info / slices=1 / no-opt-qp-pps / no-opt-ref-list-length-pps / no-multi-pass-opt-rps / scenecut-bias=0.05 / no-opt-cu-delta-qp / no-aq-motion / no-hdr / no-hdr-opt / no-dhdr10-opt / no-idr-recovery-sei / analysis-reuse-level=5 / scale-factor=0 / refine-intra=0 / refine-inter=0 / refine-mv=0 / refine-ctu-distortion=0 / no-limit-sao / ctu-info=0 / no-lowpass-dct / refine-analysis-type=0 / copy-pic=1 / max-ausize-factor=1.0 / no-dynamic-refine / no-single-sei / no-hevc-aq / qp-adaptation-range=1.00
Default                                  : Yes
Forced                                   : No
Color range                              : Limited
Color primaries                          : BT.709
Transfer characteristics                 : BT.709
Matrix coefficients                      : BT.709

Audio
ID                                       : 2
Format                                   : AAC LC
Format/Info                              : Advanced Audio Codec Low Complexity
Codec ID                                 : A_AAC-2
Duration                                 : 8 min 10 s
Bit rate                                 : 185 kb/s
Channel(s)                               : 2 channels
Channel layout                           : L R
Sampling rate                            : 48.0 kHz
Frame rate                               : 46.875 FPS (1024 SPF)
Compression mode                         : Lossy
Stream size                              : 10.8 MiB (46%)
Title                                    : Japanese 2.0 channel AAC
Language                                 : Japanese
Default                                  : Yes
Forced                                   : No

Text #1
ID                                       : 3
Format                                   : ASS
Codec ID                                 : S_TEXT/ASS
Codec ID/Info                            : Advanced Sub Station Alpha
Duration                                 : 7 min 53 s
Bit rate                                 : 290 b/s
Count of elements                        : 218
Compression mode                         : Lossless
Stream size                              : 16.8 KiB (0%)
Title                                    : [kBaraka]
Language                                 : English
Default                                  : Yes
Forced                                   : No

Text #2
ID                                       : 4
Format                                   : ASS
Codec ID                                 : S_TEXT/ASS
Codec ID/Info                            : Advanced Sub Station Alpha
Duration                                 : 7 min 53 s
Bit rate                                 : 216 b/s
Count of elements                        : 172
Compression mode                         : Lossless
Stream size                              : 12.5 KiB (0%)
Title                                    : [kBaraka]
Language                                 : English
Default                                  : No
Forced                                   : No

Menu
00:00:00.000                             : The Never-Ending Body Improvement Club
00:02:42.410                             : Tome's Trump Card
00:04:45.410                             : The Battle for the Top
00:07:55.308                             : Credits

Other Files in this Torrent
Mob Psycho 100 Mini/[NewbSubs] Mob Psycho 100 Mini 03 (1080p Blu-ray x265 AAC)[B677B6E3].mkv
beta
Anime DDL+NZB mirror
Current Time: 22/07/2024 10:55



About/FAQs

Discord