[NewbSubs] Mob Psycho 100 02 (1080p Blu-ray x265 Dual Audio)[B8BD299C].mkv


File Size715.6 MB (750,410,254 bytes)
DownloadClickNUpload | Go4Up
  • DownAce
  • FileFactory
  • KatFile
  • Oboom
  • OwnDrives
  • Share-Online
  • SolidFiles
  • TusFiles
  • Uppit
  • UsersCloud
| Jheberg | OpenLoad
MultiUp: Part1, Part2
Sendspace: Part1, Part2, Part3
ZippyShare: Part1, Part2
HashesCRC32: B8BD299C, MD5: 8A2901176A88FB6A33BF5B7384556458, SHA1: 7BF7C90968D459271E11599D0B47888E16D4C170, SHA256: 3E18ED9BAFB9D10BC18DDAA7E75A62B58B905B4981DD29C51DC044FC4A847A38, ED2K: 3378064F52E762867E37BB487974AE9D
Screenshots
screenshotscreenshotscreenshotscreenshotscreenshot
SubtitlesAll Attachments | Signs/Karaoke [Glue] - [kBaraka] [zxx, ASS], [Glue] - [kBaraka] [eng, ASS]
Additional Info
General
Unique ID                                : 20975763959284156444999609740371366581 (0xFC7C902506063BB96D11537AFCB12B5)
Complete name                            : [NewbSubs] Mob Psycho 100 02 (1080p Blu-ray x265 Dual Audio)[B8BD299C].mkv
Format                                   : Matroska
Format version                           : Version 4
File size                                : 716 MiB
Duration                                 : 24 min 11 s
Overall bit rate                         : 4 137 kb/s
Movie name                               : [Akatomba-kBaraka] Mob Psycho 100 - 02 (BD 1920x1080 x264 FLAC) [92EA2697] / [NewbSubs] Mob Psycho 100 02 (1080p Blu-ray x265 Dual Audio)
Track name/Position                      : 2
Track name/Total                         : 12
Encoded date                             : UTC 2019-03-03 19:52:28
Writing application                      : mkvmerge v31.0.0 ('Dolores In A Shoestand') 64-bit
Writing library                          : libebml v1.3.6 + libmatroska v1.4.9
Attachments                              : Aero Matics Bold.ttf / CALLI.TTF / chalkdust.ttf / CONSTANB.TTF / disco.ttf / FOTManyoSoshoStdStripped-EB2 (1).otf / FOT-MatissePro-EB-Toaru.ttf / HannaHandwriting.ttf / iskpotab.ttf / Montara-Bold.otf / Montara-Gothic.ttf / Montara-Italic_0.ttf / nrkis.ttf / Psycho Numbers.ttf / RaysHand Regular.ttf / ROCCB___.TTF
ARTIST                                   : Subs: [Glue] - [kBaraka]

Video
ID                                       : 1
Format                                   : HEVC
Format/Info                              : High Efficiency Video Coding
Format profile                           : Main 10@L4@Main
Codec ID                                 : V_MPEGH/ISO/HEVC
Duration                                 : 24 min 11 s
Bit rate                                 : 3 386 kb/s
Width                                    : 1 920 pixels
Height                                   : 1 080 pixels
Display aspect ratio                     : 16:9
Frame rate mode                          : Constant
Frame rate                               : 23.976 (24000/1001) FPS
Color space                              : YUV
Chroma subsampling                       : 4:2:0
Bit depth                                : 10 bits
Bits/(Pixel*Frame)                       : 0.068
Stream size                              : 586 MiB (82%)
Writing library                          : x265 3.0_Au+4-dcbec33bfb0f:[Windows][MSVC 1916][64 bit] 10bit
Encoding settings                        : cpuid=1049583 / frame-threads=3 / numa-pools=+ / wpp / no-pmode / no-pme / no-psnr / no-ssim / log-level=2 / input-csp=1 / input-res=1920x1080 / interlace=0 / total-frames=1212 / level-idc=0 / high-tier=1 / uhd-bd=0 / ref=4 / no-allow-non-conformance / no-repeat-headers / annexb / no-aud / no-hrd / info / hash=0 / no-temporal-layers / open-gop / min-keyint=24 / keyint=240 / gop-lookahead=0 / bframes=5 / b-adapt=2 / b-pyramid / bframe-bias=0 / rc-lookahead=30 / lookahead-slices=4 / scenecut=40 / radl=0 / no-splice / no-intra-refresh / ctu=32 / min-cu-size=8 / rect / no-amp / max-tu-size=32 / tu-inter-depth=1 / tu-intra-depth=1 / limit-tu=0 / rdoq-level=2 / dynamic-rd=0.00 / no-ssim-rd / signhide / no-tskip / nr-intra=0 / nr-inter=0 / no-constrained-intra / strong-intra-smoothing / max-merge=3 / limit-refs=3 / limit-modes / me=3 / subme=3 / merange=25 / temporal-mvp / weightp / no-weightb / no-analyze-src-pics / deblock=0:0 / sao / no-sao-non-deblock / rd=4 / no-early-skip / rskip / no-fast-intra / no-tskip-fast / no-cu-lossless / no-b-intra / no-splitrd-skip / rdpenalty=0 / psy-rd=2.00 / psy-rdoq=1.00 / no-rd-refine / no-lossless / cbqpoffs=0 / crqpoffs=0 / rc=crf / crf=19.3 / qcomp=0.60 / qpstep=4 / stats-write=0 / stats-read=0 / ipratio=1.40 / pbratio=1.30 / aq-mode=2 / aq-strength=1.00 / cutree / zone-count=0 / no-strict-cbr / qg-size=32 / no-rc-grain / qpmax=69 / qpmin=0 / no-const-vbv / sar=1 / overscan=0 / videoformat=5 / range=0 / colorprim=1 / transfer=1 / colormatrix=1 / chromaloc=0 / display-window=0 / max-cll=0,0 / min-luma=0 / max-luma=1023 / log2-max-poc-lsb=8 / vui-timing-info / vui-hrd-info / slices=1 / no-opt-qp-pps / no-opt-ref-list-length-pps / no-multi-pass-opt-rps / scenecut-bias=0.05 / no-opt-cu-delta-qp / no-aq-motion / no-hdr / no-hdr-opt / no-dhdr10-opt / no-idr-recovery-sei / analysis-reuse-level=5 / scale-factor=0 / refine-intra=0 / refine-inter=0 / refine-mv=0 / refine-ctu-distortion=0 / no-limit-sao / ctu-info=0 / no-lowpass-dct / refine-analysis-type=0 / copy-pic=1 / max-ausize-factor=1.0 / no-dynamic-refine / no-single-sei / no-hevc-aq / qp-adaptation-range=1.00
Default                                  : Yes
Forced                                   : No
Color range                              : Limited
Color primaries                          : BT.709
Transfer characteristics                 : BT.709
Matrix coefficients                      : BT.709

Audio #1
ID                                       : 4
Format                                   : AAC LC
Format/Info                              : Advanced Audio Codec Low Complexity
Codec ID                                 : A_AAC-2
Duration                                 : 24 min 11 s
Bit rate                                 : 529 kb/s
Channel(s)                               : 6 channels
Channel layout                           : C L R Ls Rs LFE
Sampling rate                            : 48.0 kHz
Frame rate                               : 46.875 FPS (1024 SPF)
Compression mode                         : Lossy
Stream size                              : 92.5 MiB (13%)
Title                                    : English 5.1 channel AAC
Language                                 : English
Default                                  : Yes
Forced                                   : No

Audio #2
ID                                       : 5
Format                                   : AAC LC
Format/Info                              : Advanced Audio Codec Low Complexity
Codec ID                                 : A_AAC-2
Duration                                 : 24 min 11 s
Bit rate                                 : 192 kb/s
Channel(s)                               : 2 channels
Channel layout                           : L R
Sampling rate                            : 48.0 kHz
Frame rate                               : 46.875 FPS (1024 SPF)
Compression mode                         : Lossy
Stream size                              : 33.4 MiB (5%)
Title                                    : Japanese 2.0 channel AAC
Language                                 : Japanese
Default                                  : No
Forced                                   : No

Text #1
ID                                       : 2
Format                                   : ASS
Codec ID                                 : S_TEXT/ASS
Codec ID/Info                            : Advanced Sub Station Alpha
Duration                                 : 23 min 6 s
Bit rate                                 : 3 213 b/s
Count of elements                        : 4873
Compression mode                         : Lossless
Stream size                              : 544 KiB (0%)
Title                                    : Signs/Karaoke [Glue] - [kBaraka]
Language                                 : zxx
Default                                  : Yes
Forced                                   : No

Text #2
ID                                       : 3
Format                                   : ASS
Codec ID                                 : S_TEXT/ASS
Codec ID/Info                            : Advanced Sub Station Alpha
Duration                                 : 24 min 8 s
Bit rate                                 : 3 218 b/s
Count of elements                        : 5311
Compression mode                         : Lossless
Stream size                              : 569 KiB (0%)
Title                                    : [Glue] - [kBaraka]
Language                                 : English
Default                                  : No
Forced                                   : No

Menu
00:00:00.000                             : en:Prologue
00:01:00.978                             : en:Opening
00:02:31.026                             : en:Part A
00:13:19.007                             : en:Part B
00:22:10.996                             : en:Ending
00:23:41.003                             : en:Epilogue
00:23:54.975                             : en:Preview

Other Files in this Torrent
[NewbSubs] Mob Psycho 100 02 (1080p Blu-ray x265 Dual Audio)[B8BD299C].mkv
beta
Anime DDL+NZB mirror
Current Time: 19/07/2024 02:16



About/FAQs

Discord