Extras/[NewbSubs] Mob Psycho 100 OP (1080p Blu-ray x265 AAC)[D6F6681A].mkv


File Size87.57 MB (91,821,487 bytes)
DownloadClickNUpload | Go4Up
  • DownAce
  • FileFactory
  • KatFile
  • Oboom
  • OwnDrives
  • Share-Online
  • SolidFiles
  • TusFiles
  • Uppit
  • UsersCloud
| Jheberg | MultiUp | OpenLoad | Sendspace | ZippyShare
HashesCRC32: D6F6681A, MD5: B28E838860C8F18DA5D8AC42F0D7ECD4, SHA1: AEE52767267C00CC11D33FE865D42A5B39A48085, SHA256: B84E4636825311BFE75DC9AF20297EF903DB3BFE15EE622ACD66621DEB541474, ED2K: 5C570642DDCF06BAA8D891A761C45EBB
Screenshots
screenshotscreenshot
SubtitlesAll Attachments | [Glue] - [kBaraka] [eng, ASS]
Additional Info
General
Unique ID                                : 234228612452154561495527061101430134035 (0xB036CA33F672EF92812E834A7EA75513)
Complete name                            : [NewbSubs] Mob Psycho 100 OP (1080p Blu-ray x265 AAC)[D6F6681A].mkv
Format                                   : Matroska
Format version                           : Version 4
File size                                : 87.6 MiB
Duration                                 : 1 min 32 s
Overall bit rate                         : 7 946 kb/s
Movie name                               : Mob Psycho 100 - 01: Self-Proclaimed Psychic: Reigen Arataka ~And Mob~ / [NewbSubs] Mob Psycho 100 OP (1080p Blu-ray x265 AAC)
Track name/Position                      : 1
Track name/Total                         : 1
Encoded date                             : UTC 2019-03-03 15:17:40
Writing application                      : mkvmerge v31.0.0 ('Dolores In A Shoestand') 64-bit
Writing library                          : libebml v1.3.6 + libmatroska v1.4.9
Attachments                              : Aero Matics Bold.ttf / Aladin Regular.TTF / ArchitectsDaughter.ttf / BrushType.ttf / CONSTANB.TTF / DCPRyuuMoji-W12.ttf / disco.ttf / Hand Of Sean Pro.otf / HannaHandwriting.ttf / IgniteTheLight.ttf / LEHN139.TTF / Montara-Bold.otf / Montara-Gothic.ttf / Montara-Italic_0.ttf / PaperJohnnyEins-Regular.otf / Psycho Numbers.ttf / RaysHand Regular.ttf / ROCCB___.TTF
ARTIST                                   : Subs: [Glue] - [kBaraka]

Video
ID                                       : 1
Format                                   : HEVC
Format/Info                              : High Efficiency Video Coding
Format profile                           : Main 10@L4@Main
Codec ID                                 : V_MPEGH/ISO/HEVC
Duration                                 : 1 min 29 s
Bit rate                                 : 7 785 kb/s
Width                                    : 1 920 pixels
Height                                   : 1 080 pixels
Display aspect ratio                     : 16:9
Frame rate mode                          : Constant
Frame rate                               : 23.976 (24000/1001) FPS
Color space                              : YUV
Chroma subsampling                       : 4:2:0
Bit depth                                : 10 bits
Bits/(Pixel*Frame)                       : 0.157
Stream size                              : 83.5 MiB (95%)
Writing library                          : x265 3.0_Au+4-dcbec33bfb0f:[Windows][MSVC 1916][64 bit] 10bit
Encoding settings                        : cpuid=1049583 / frame-threads=3 / numa-pools=+ / wpp / no-pmode / no-pme / no-psnr / no-ssim / log-level=2 / input-csp=1 / input-res=1920x1080 / interlace=0 / total-frames=2157 / level-idc=0 / high-tier=1 / uhd-bd=0 / ref=4 / no-allow-non-conformance / no-repeat-headers / annexb / no-aud / no-hrd / info / hash=0 / no-temporal-layers / open-gop / min-keyint=24 / keyint=240 / gop-lookahead=0 / bframes=5 / b-adapt=2 / b-pyramid / bframe-bias=0 / rc-lookahead=30 / lookahead-slices=4 / scenecut=40 / radl=0 / no-splice / no-intra-refresh / ctu=32 / min-cu-size=8 / rect / no-amp / max-tu-size=32 / tu-inter-depth=1 / tu-intra-depth=1 / limit-tu=0 / rdoq-level=2 / dynamic-rd=0.00 / no-ssim-rd / signhide / no-tskip / nr-intra=0 / nr-inter=0 / no-constrained-intra / strong-intra-smoothing / max-merge=3 / limit-refs=3 / limit-modes / me=3 / subme=3 / merange=25 / temporal-mvp / weightp / no-weightb / no-analyze-src-pics / deblock=0:0 / sao / no-sao-non-deblock / rd=4 / no-early-skip / rskip / no-fast-intra / no-tskip-fast / no-cu-lossless / no-b-intra / no-splitrd-skip / rdpenalty=0 / psy-rd=2.00 / psy-rdoq=1.00 / no-rd-refine / no-lossless / cbqpoffs=0 / crqpoffs=0 / rc=crf / crf=19.3 / qcomp=0.60 / qpstep=4 / stats-write=0 / stats-read=0 / ipratio=1.40 / pbratio=1.30 / aq-mode=2 / aq-strength=1.00 / cutree / zone-count=0 / no-strict-cbr / qg-size=32 / no-rc-grain / qpmax=69 / qpmin=0 / no-const-vbv / sar=1 / overscan=0 / videoformat=5 / range=0 / colorprim=1 / transfer=1 / colormatrix=1 / chromaloc=0 / display-window=0 / max-cll=0,0 / min-luma=0 / max-luma=1023 / log2-max-poc-lsb=8 / vui-timing-info / vui-hrd-info / slices=1 / no-opt-qp-pps / no-opt-ref-list-length-pps / no-multi-pass-opt-rps / scenecut-bias=0.05 / no-opt-cu-delta-qp / no-aq-motion / no-hdr / no-hdr-opt / no-dhdr10-opt / no-idr-recovery-sei / analysis-reuse-level=5 / scale-factor=0 / refine-intra=0 / refine-inter=0 / refine-mv=0 / refine-ctu-distortion=0 / no-limit-sao / ctu-info=0 / no-lowpass-dct / refine-analysis-type=0 / copy-pic=1 / max-ausize-factor=1.0 / no-dynamic-refine / no-single-sei / no-hevc-aq / qp-adaptation-range=1.00
Default                                  : Yes
Forced                                   : No
Color range                              : Limited
Color primaries                          : BT.709
Transfer characteristics                 : BT.709
Matrix coefficients                      : BT.709

Audio
ID                                       : 2
Format                                   : AAC LC
Format/Info                              : Advanced Audio Codec Low Complexity
Codec ID                                 : A_AAC-2
Duration                                 : 1 min 29 s
Bit rate                                 : 211 kb/s
Channel(s)                               : 2 channels
Channel layout                           : L R
Sampling rate                            : 48.0 kHz
Frame rate                               : 46.875 FPS (1024 SPF)
Compression mode                         : Lossy
Stream size                              : 2.27 MiB (3%)
Title                                    : Japanese 2.0 channel AAC
Language                                 : Japanese
Default                                  : Yes
Forced                                   : No

Text
ID                                       : 3
Format                                   : ASS
Codec ID                                 : S_TEXT/ASS
Codec ID/Info                            : Advanced Sub Station Alpha
Duration                                 : 1 min 30 s
Bit rate                                 : 9 483 b/s
Count of elements                        : 1072
Compression mode                         : Lossless
Stream size                              : 104 KiB (0%)
Title                                    : [Glue] - [kBaraka]
Language                                 : English
Default                                  : Yes
Forced                                   : No

Other Files in this Torrent
Extras/[NewbSubs] Mob Psycho 100 OP (1080p Blu-ray x265 AAC)[D6F6681A].mkv
beta
Anime DDL+NZB mirror
Current Time: 22/07/2024 10:24



About/FAQs

Discord