[NewbSubs] Mob Psycho 100 04 (1080p Blu-ray x265 Dual Audio)[C8AE0C75].mkv


File Size689.1 MB (722,524,038 bytes)
DownloadClickNUpload | Go4Up
  • DownAce
  • FileFactory
  • KatFile
  • Oboom
  • OwnDrives
  • Share-Online
  • SolidFiles
  • TusFiles
  • Uppit
  • UsersCloud
| Jheberg | OpenLoad
MultiUp: Part1, Part2
Sendspace: Part1, Part2, Part3
ZippyShare: Part1, Part2
HashesCRC32: C8AE0C75, MD5: 3E0AA3528AD223EDC50B554B408EF472, SHA1: A428ED0A9D44BAC12B1F003F188DA0897A922946, SHA256: 5CEDFDD3B03F88E80DC815DBD527BA954815C9B362C81A0D0AD8B152C31EB7B7, ED2K: 4A9B800BB55F697C45FE0408877B6CC0
Screenshots
screenshotscreenshotscreenshotscreenshotscreenshot
SubtitlesAll Attachments | Signs/Karaoke [Glue] - [kBaraka] [zxx, ASS], [Glue] - [kBaraka] [eng, ASS]
Additional Info
General
Unique ID                                : 318171363725607826079873826701978726543 (0xEF5D93601054737DF2EB5B46F5CD708F)
Complete name                            : [NewbSubs] Mob Psycho 100 04 (1080p Blu-ray x265 Dual Audio)[C8AE0C75].mkv
Format                                   : Matroska
Format version                           : Version 4
File size                                : 689 MiB
Duration                                 : 24 min 11 s
Overall bit rate                         : 3 983 kb/s
Movie name                               : [Akatomba-kBaraka] Mob Psycho 100 - 04 (BD 1920x1080 x264 FLAC) [99E57A15] / [NewbSubs] Mob Psycho 100 04 (1080p Blu-ray x265 Dual Audio)
Track name/Position                      : 4
Track name/Total                         : 12
Encoded date                             : UTC 2019-03-03 19:52:48
Writing application                      : mkvmerge v31.0.0 ('Dolores In A Shoestand') 64-bit
Writing library                          : libebml v1.3.6 + libmatroska v1.4.9
Attachments                              : Aero Matics Bold.ttf / ARCENA.ttf / Brush Strokes.ttf / CONSTANB.TTF / disco.ttf / Eager_Naturalist.ttf / FOTGAKUMARUGOTHICALIASED-2B_0.TTF / Hand Of Sean Pro.otf / Hira v8.ttf / Montara-Gothic.ttf / Montara-Italic_0.ttf / OreMoji-W5.ttf / Psycho Numbers.ttf / RaysHand Regular.ttf
ARTIST                                   : Subs: [Glue] - [kBaraka]

Video
ID                                       : 1
Format                                   : HEVC
Format/Info                              : High Efficiency Video Coding
Format profile                           : Main 10@L4@Main
Codec ID                                 : V_MPEGH/ISO/HEVC
Duration                                 : 24 min 11 s
Bit rate                                 : 3 205 kb/s
Width                                    : 1 920 pixels
Height                                   : 1 080 pixels
Display aspect ratio                     : 16:9
Frame rate mode                          : Constant
Frame rate                               : 23.976 (24000/1001) FPS
Color space                              : YUV
Chroma subsampling                       : 4:2:0
Bit depth                                : 10 bits
Bits/(Pixel*Frame)                       : 0.064
Stream size                              : 554 MiB (80%)
Writing library                          : x265 3.0_Au+4-dcbec33bfb0f:[Windows][MSVC 1916][64 bit] 10bit
Encoding settings                        : cpuid=1049583 / frame-threads=3 / numa-pools=+ / wpp / no-pmode / no-pme / no-psnr / no-ssim / log-level=2 / input-csp=1 / input-res=1920x1080 / interlace=0 / total-frames=1344 / level-idc=0 / high-tier=1 / uhd-bd=0 / ref=4 / no-allow-non-conformance / no-repeat-headers / annexb / no-aud / no-hrd / info / hash=0 / no-temporal-layers / open-gop / min-keyint=24 / keyint=240 / gop-lookahead=0 / bframes=5 / b-adapt=2 / b-pyramid / bframe-bias=0 / rc-lookahead=30 / lookahead-slices=4 / scenecut=40 / radl=0 / no-splice / no-intra-refresh / ctu=32 / min-cu-size=8 / rect / no-amp / max-tu-size=32 / tu-inter-depth=1 / tu-intra-depth=1 / limit-tu=0 / rdoq-level=2 / dynamic-rd=0.00 / no-ssim-rd / signhide / no-tskip / nr-intra=0 / nr-inter=0 / no-constrained-intra / strong-intra-smoothing / max-merge=3 / limit-refs=3 / limit-modes / me=3 / subme=3 / merange=25 / temporal-mvp / weightp / no-weightb / no-analyze-src-pics / deblock=0:0 / sao / no-sao-non-deblock / rd=4 / no-early-skip / rskip / no-fast-intra / no-tskip-fast / no-cu-lossless / no-b-intra / no-splitrd-skip / rdpenalty=0 / psy-rd=2.00 / psy-rdoq=1.00 / no-rd-refine / no-lossless / cbqpoffs=0 / crqpoffs=0 / rc=crf / crf=19.3 / qcomp=0.60 / qpstep=4 / stats-write=0 / stats-read=0 / ipratio=1.40 / pbratio=1.30 / aq-mode=2 / aq-strength=1.00 / cutree / zone-count=0 / no-strict-cbr / qg-size=32 / no-rc-grain / qpmax=69 / qpmin=0 / no-const-vbv / sar=1 / overscan=0 / videoformat=5 / range=0 / colorprim=1 / transfer=1 / colormatrix=1 / chromaloc=0 / display-window=0 / max-cll=0,0 / min-luma=0 / max-luma=1023 / log2-max-poc-lsb=8 / vui-timing-info / vui-hrd-info / slices=1 / no-opt-qp-pps / no-opt-ref-list-length-pps / no-multi-pass-opt-rps / scenecut-bias=0.05 / no-opt-cu-delta-qp / no-aq-motion / no-hdr / no-hdr-opt / no-dhdr10-opt / no-idr-recovery-sei / analysis-reuse-level=5 / scale-factor=0 / refine-intra=0 / refine-inter=0 / refine-mv=0 / refine-ctu-distortion=0 / no-limit-sao / ctu-info=0 / no-lowpass-dct / refine-analysis-type=0 / copy-pic=1 / max-ausize-factor=1.0 / no-dynamic-refine / no-single-sei / no-hevc-aq / qp-adaptation-range=1.00
Default                                  : Yes
Forced                                   : No
Color range                              : Limited
Color primaries                          : BT.709
Transfer characteristics                 : BT.709
Matrix coefficients                      : BT.709

Audio #1
ID                                       : 4
Format                                   : AAC LC
Format/Info                              : Advanced Audio Codec Low Complexity
Codec ID                                 : A_AAC-2
Duration                                 : 24 min 11 s
Bit rate                                 : 558 kb/s
Channel(s)                               : 6 channels
Channel layout                           : C L R Ls Rs LFE
Sampling rate                            : 48.0 kHz
Frame rate                               : 46.875 FPS (1024 SPF)
Compression mode                         : Lossy
Stream size                              : 96.6 MiB (14%)
Title                                    : English 5.1 channel AAC
Language                                 : English
Default                                  : Yes
Forced                                   : No

Audio #2
ID                                       : 5
Format                                   : AAC LC
Format/Info                              : Advanced Audio Codec Low Complexity
Codec ID                                 : A_AAC-2
Duration                                 : 24 min 11 s
Bit rate                                 : 198 kb/s
Channel(s)                               : 2 channels
Channel layout                           : L R
Sampling rate                            : 48.0 kHz
Frame rate                               : 46.875 FPS (1024 SPF)
Compression mode                         : Lossy
Stream size                              : 34.3 MiB (5%)
Title                                    : Japanese 2.0 channel AAC
Language                                 : Japanese
Default                                  : No
Forced                                   : No

Text #1
ID                                       : 2
Format                                   : ASS
Codec ID                                 : S_TEXT/ASS
Codec ID/Info                            : Advanced Sub Station Alpha
Duration                                 : 24 min 10 s
Bit rate                                 : 2 521 b/s
Count of elements                        : 3883
Compression mode                         : Lossless
Stream size                              : 446 KiB (0%)
Title                                    : Signs/Karaoke [Glue] - [kBaraka]
Language                                 : zxx
Default                                  : Yes
Forced                                   : No

Text #2
ID                                       : 3
Format                                   : ASS
Codec ID                                 : S_TEXT/ASS
Codec ID/Info                            : Advanced Sub Station Alpha
Duration                                 : 24 min 10 s
Bit rate                                 : 2 657 b/s
Count of elements                        : 4287
Compression mode                         : Lossless
Stream size                              : 470 KiB (0%)
Title                                    : [Glue] - [kBaraka]
Language                                 : English
Default                                  : No
Forced                                   : No

Menu
00:00:00.000                             : Prologue
00:00:56.056                             : Opening
00:02:26.021                             : Part A
00:12:15.026                             : Part B
00:22:25.052                             : Ending
00:23:55.017                             : Preview

Other Files in this Torrent
[NewbSubs] Mob Psycho 100 04 (1080p Blu-ray x265 Dual Audio)[C8AE0C75].mkv
beta
Anime DDL+NZB mirror
Current Time: 22/07/2024 10:40



About/FAQs

Discord