File Size354.7 MB (371,904,348 bytes)
DownloadClickNUpload | Go4Up
  • DownAce
  • FileFactory
  • KatFile
  • Oboom
  • OwnDrives
  • Share-Online
  • SolidFiles
  • TusFiles
  • Uppit
  • UsersCloud
| Jheberg | MultiUp
  • BdUpload
  • DownAce
  • Fichier
  • FileCloud
  • Filerio
  • FilesCdn
  • IndiShare
  • Kbagi
  • Solidfiles
  • Turbobit
  • UpToBox
  • Uppit
| OpenLoad | ZippyShare
Sendspace: Part1, Part2
HashesCRC32: 6AD6563D, MD5: BB347A2BAC2A19A4A4914CAC4EE3F736, SHA1: 6A6903A58CC435BBE15F14B001F6271CA1D0613F, SHA256: DE497832BFCCDBF2921672B7606084CD62DF1C98A97B54D2FAC008D4C279D712, ED2K: F48E658078128EC9FBB18056DF1F4C45
Screenshots
screenshotscreenshotscreenshotscreenshotscreenshot
Additional Info
General
Complete name                            : Made in Abyss -  s01e13.mp4
Format                                   : MPEG-4
Format profile                           : Base Media / Version 2
Codec ID                                 : mp42 (isom/iso2/avc1/mp41)
File size                                : 355 MiB
Duration                                 : 48 min 19 s
Overall bit rate mode                    : Variable
Overall bit rate                         : 1 026 kb/s
Encoded date                             : UTC 2019-04-02 22:21:37
Tagged date                              : UTC 2019-04-02 22:21:37
Writing application                      : HandBrake 1.2.2 2019022300

Video
ID                                       : 1
Format                                   : AVC
Format/Info                              : Advanced Video Codec
Format profile                           : Main@L4
Format settings                          : CABAC / 1 Ref Frames
Format settings, CABAC                   : Yes
Format settings, ReFrames                : 1 frame
Codec ID                                 : avc1
Codec ID/Info                            : Advanced Video Coding
Duration                                 : 48 min 19 s
Bit rate mode                            : Variable
Bit rate                                 : 864 kb/s
Maximum bit rate                         : 2 000 kb/s
Width                                    : 1 280 pixels
Height                                   : 720 pixels
Display aspect ratio                     : 16:9
Frame rate mode                          : Variable
Frame rate                               : 23.976 (24000/1001) FPS
Minimum frame rate                       : 23.974 FPS
Maximum frame rate                       : 23.981 FPS
Color space                              : YUV
Chroma subsampling                       : 4:2:0
Bit depth                                : 8 bits
Scan type                                : Progressive
Bits/(Pixel*Frame)                       : 0.039
Stream size                              : 299 MiB (84%)
Encoded date                             : UTC 2019-04-02 22:21:37
Tagged date                              : UTC 2019-04-02 22:21:37
Color range                              : Limited
Color primaries                          : BT.709
Transfer characteristics                 : BT.709
Matrix coefficients                      : BT.709
Codec configuration box                  : avcC

Audio
ID                                       : 2
Format                                   : AAC LC
Format/Info                              : Advanced Audio Codec Low Complexity
Codec ID                                 : mp4a-40-2
Duration                                 : 48 min 19 s
Bit rate mode                            : Constant
Bit rate                                 : 157 kb/s
Channel(s)                               : 2 channels
Channel layout                           : L R
Sampling rate                            : 48.0 kHz
Frame rate                               : 46.875 FPS (1024 SPF)
Compression mode                         : Lossy
Stream size                              : 54.4 MiB (15%)
Title                                    : Stereo
Language                                 : Japanese
Default                                  : Yes
Alternate group                          : 1
Encoded date                             : UTC 2019-04-02 22:21:37
Tagged date                              : UTC 2019-04-02 22:21:37

Other Files in this Torrent
Made in Abyss - s01e13.mp4
beta
Anime DDL+NZB mirror
Current Time: 17/06/2024 07:30



About/FAQs

Discord