File Size204.3 MB (214,253,527 bytes)
DownloadClickNUpload | Go4Up
  • DownAce
  • FileFactory
  • KatFile
  • Oboom
  • OwnDrives
  • Share-Online
  • SolidFiles
  • TusFiles
  • Uppit
  • UsersCloud
| Jheberg | MultiUp
  • BdUpload
  • DownAce
  • Fichier
  • FileCloud
  • Filerio
  • FilesCdn
  • IndiShare
  • Kbagi
  • Solidfiles
  • Turbobit
  • UpToBox
  • Uppit
| OpenLoad | Sendspace | ZippyShare
HashesCRC32: 3E15BD1C, MD5: E196254C5A0C4A14B4F26CE3D2D74CE2, SHA1: 31E9232703FC185DAD821FE11F82011E4DFE9B55, SHA256: E60607990DC05989E479CB1AD33CA64F4D37C44751FCA3408E286398DAB53FC6, ED2K: 8027D72A87AC88AB3A437DDCDCF36B8C
Screenshots
screenshotscreenshotscreenshotscreenshotscreenshot
Additional Info
General
Complete name                            : Made in Abyss -  s01e08.mp4
Format                                   : MPEG-4
Format profile                           : Base Media / Version 2
Codec ID                                 : mp42 (isom/iso2/avc1/mp41)
File size                                : 204 MiB
Duration                                 : 24 min 39 s
Overall bit rate mode                    : Variable
Overall bit rate                         : 1 159 kb/s
Encoded date                             : UTC 2019-04-02 21:57:29
Tagged date                              : UTC 2019-04-02 21:57:29
Writing application                      : HandBrake 1.2.2 2019022300

Video
ID                                       : 1
Format                                   : AVC
Format/Info                              : Advanced Video Codec
Format profile                           : Main@L4
Format settings                          : CABAC / 1 Ref Frames
Format settings, CABAC                   : Yes
Format settings, ReFrames                : 1 frame
Codec ID                                 : avc1
Codec ID/Info                            : Advanced Video Coding
Duration                                 : 24 min 39 s
Bit rate mode                            : Variable
Bit rate                                 : 1 000 kb/s
Maximum bit rate                         : 2 000 kb/s
Width                                    : 1 280 pixels
Height                                   : 720 pixels
Display aspect ratio                     : 16:9
Frame rate mode                          : Variable
Frame rate                               : 23.976 (24000/1001) FPS
Minimum frame rate                       : 23.974 FPS
Maximum frame rate                       : 23.981 FPS
Color space                              : YUV
Chroma subsampling                       : 4:2:0
Bit depth                                : 8 bits
Scan type                                : Progressive
Bits/(Pixel*Frame)                       : 0.045
Stream size                              : 176 MiB (86%)
Encoded date                             : UTC 2019-04-02 21:57:29
Tagged date                              : UTC 2019-04-02 21:57:29
Color range                              : Limited
Color primaries                          : BT.709
Transfer characteristics                 : BT.709
Matrix coefficients                      : BT.709
Codec configuration box                  : avcC

Audio
ID                                       : 2
Format                                   : AAC LC
Format/Info                              : Advanced Audio Codec Low Complexity
Codec ID                                 : mp4a-40-2
Duration                                 : 24 min 39 s
Bit rate mode                            : Constant
Bit rate                                 : 154 kb/s
Channel(s)                               : 2 channels
Channel layout                           : L R
Sampling rate                            : 48.0 kHz
Frame rate                               : 46.875 FPS (1024 SPF)
Compression mode                         : Lossy
Stream size                              : 27.2 MiB (13%)
Title                                    : Stereo
Language                                 : Japanese
Default                                  : Yes
Alternate group                          : 1
Encoded date                             : UTC 2019-04-02 21:57:29
Tagged date                              : UTC 2019-04-02 21:57:29

Other Files in this Torrent
Made in Abyss - s01e08.mp4
beta
Anime DDL+NZB mirror
Current Time: 17/06/2024 07:49



About/FAQs

Discord