File Size205.6 MB (215,595,897 bytes)
DownloadClickNUpload | Go4Up
  • DownAce
  • FileFactory
  • KatFile
  • Oboom
  • OwnDrives
  • Share-Online
  • SolidFiles
  • TusFiles
  • Uppit
  • UsersCloud
| Jheberg | MultiUp
  • BdUpload
  • DownAce
  • Fichier
  • FileCloud
  • Filerio
  • FilesCdn
  • IndiShare
  • Kbagi
  • Solidfiles
  • Turbobit
  • UpToBox
  • Uppit
| OpenLoad | Sendspace | ZippyShare
HashesCRC32: 9CDED79D, MD5: A497EBEC924C63D607E2FFCF6617FFF8, SHA1: 9B14F9A6F30EC2DEB28E52A64FB30346309F54A1, SHA256: 9B17124C907BC9B26F9F3CEB7C09CEDDB8DE60E90C44E6FC4F34E43350AB6482, ED2K: C7EDAC87AC1C77853F47A240AD5D547C
Screenshots
screenshotscreenshotscreenshotscreenshotscreenshot
Additional Info
General
Complete name                            : Made in Abyss -  s01e10.mp4
Format                                   : MPEG-4
Format profile                           : Base Media / Version 2
Codec ID                                 : mp42 (isom/iso2/avc1/mp41)
File size                                : 206 MiB
Duration                                 : 24 min 40 s
Overall bit rate mode                    : Variable
Overall bit rate                         : 1 165 kb/s
Encoded date                             : UTC 2019-04-02 22:07:02
Tagged date                              : UTC 2019-04-02 22:07:02
Writing application                      : HandBrake 1.2.2 2019022300

Video
ID                                       : 1
Format                                   : AVC
Format/Info                              : Advanced Video Codec
Format profile                           : Main@L4
Format settings                          : CABAC / 1 Ref Frames
Format settings, CABAC                   : Yes
Format settings, ReFrames                : 1 frame
Codec ID                                 : avc1
Codec ID/Info                            : Advanced Video Coding
Duration                                 : 24 min 40 s
Bit rate mode                            : Variable
Bit rate                                 : 1 006 kb/s
Maximum bit rate                         : 2 000 kb/s
Width                                    : 1 280 pixels
Height                                   : 720 pixels
Display aspect ratio                     : 16:9
Frame rate mode                          : Variable
Frame rate                               : 23.976 (24000/1001) FPS
Minimum frame rate                       : 23.974 FPS
Maximum frame rate                       : 23.981 FPS
Color space                              : YUV
Chroma subsampling                       : 4:2:0
Bit depth                                : 8 bits
Scan type                                : Progressive
Bits/(Pixel*Frame)                       : 0.046
Stream size                              : 178 MiB (86%)
Encoded date                             : UTC 2019-04-02 22:07:02
Tagged date                              : UTC 2019-04-02 22:07:02
Color range                              : Limited
Color primaries                          : BT.709
Transfer characteristics                 : BT.709
Matrix coefficients                      : BT.709
Codec configuration box                  : avcC

Audio
ID                                       : 2
Format                                   : AAC LC
Format/Info                              : Advanced Audio Codec Low Complexity
Codec ID                                 : mp4a-40-2
Duration                                 : 24 min 40 s
Bit rate mode                            : Constant
Bit rate                                 : 154 kb/s
Channel(s)                               : 2 channels
Channel layout                           : L R
Sampling rate                            : 48.0 kHz
Frame rate                               : 46.875 FPS (1024 SPF)
Compression mode                         : Lossy
Stream size                              : 27.2 MiB (13%)
Title                                    : Stereo
Language                                 : Japanese
Default                                  : Yes
Alternate group                          : 1
Encoded date                             : UTC 2019-04-02 22:07:02
Tagged date                              : UTC 2019-04-02 22:07:02

Other Files in this Torrent
Made in Abyss - s01e10.mp4
beta
Anime DDL+NZB mirror
Current Time: 17/06/2024 07:46



About/FAQs

Discord