Made in Abyss - 10 Poison and the Curse.mkv


File Size189.1 MB (198,247,962 bytes)
DownloadAnonFiles | ClickNUpload | DropAPK | Free | MultiUp
  • BdUpload
  • DownAce
  • Fichier
  • FileCloud
  • Filerio
  • FilesCdn
  • IndiShare
  • Kbagi
  • Turbobit
  • UpToBox
  • Uppit
| SolidFiles | ZippyShare
HashesCRC32: 6A297AFF, MD5: AFB4AD1F6CF973A0DF23983DD7EC828C, SHA1: 882BE8BAB1DE93F3364AF21A3B72A2E55C814044, SHA256: 8CE99A1C3DC6ADD8E1777FB70FE7685F1A99E3B547916FB39F0379E933C00F8E, ED2K: A3498E723115F7E829C040AF781B6733
Screenshots
screenshotscreenshotscreenshotscreenshotscreenshot
SubtitlesAll Attachments | eng [ASS], Honorifics [eng, ASS]
Additional Info
General
Unique ID                                : 318313156441476402331502206054840780325 (0xEF78E24BBF342D6D7D821F5C0861C625)
Complete name                            : Made in Abyss - 10 Poison and the Curse.mkv
Format                                   : Matroska
Format version                           : Version 4
File size                                : 189 MiB
Duration                                 : 23 min 42 s
Overall bit rate mode                    : Variable
Overall bit rate                         : 1 115 kb/s
Movie name                               : [AnimeKaizoku] Made in Abyss - 010 - Poison and the Curse (1080p BD x265 10bit Dual Audio) [SHINIGAMI_KIRA]
Encoded date                             : UTC 2019-04-25 18:39:21
Writing application                      : mkvmerge v19.0.0 ('Brave Captain') 64-bit
Writing library                          : libebml v1.3.5 + libmatroska v1.4.8 / Lavf57.41.100
Cover                                    : Yes
Attachments                              : cover.jpg / CRONOSPRO-SEMIBOLD.TTF / CRONOSPRO-SEMIBOLDIT.TTF / DRIPDROP.TTF / KGSHADOWOFTHEDAY.TTF / PLAYTIMEWITHHOTTODDIES.TTF / SARUSRB.TTF

Video
ID                                       : 1
Format                                   : HEVC
Format/Info                              : High Efficiency Video Coding
Format profile                           : Main 10@L4@Main
Codec ID                                 : V_MPEGH/ISO/HEVC
Duration                                 : 23 min 42 s
Bit rate                                 : 888 kb/s
Width                                    : 1 920 pixels
Height                                   : 1 080 pixels
Display aspect ratio                     : 16:9
Frame rate mode                          : Constant
Frame rate                               : 23.976 (24000/1001) FPS
Color space                              : YUV
Chroma subsampling                       : 4:2:0
Bit depth                                : 10 bits
Bits/(Pixel*Frame)                       : 0.018
Stream size                              : 151 MiB (80%)
Title                                    : 1080p BD x265 10bit [SHINIGAMI_KIRA]
Writing library                          : x265 1.9+226-6561d8676581:[Windows][GCC 5.3.0][64 bit] 10bit
Encoding settings                        : wpp / ctu=64 / min-cu-size=8 / max-tu-size=32 / tu-intra-depth=2 / tu-inter-depth=2 / me=3 / subme=3 / merange=57 / rect / amp / max-merge=3 / temporal-mvp / no-early-skip / rskip / rdpenalty=0 / no-tskip / no-tskip-fast / strong-intra-smoothing / no-lossless / no-cu-lossless / no-constrained-intra / no-fast-intra / open-gop / no-temporal-layers / interlace=0 / keyint=250 / min-keyint=23 / scenecut=40 / rc-lookahead=30 / lookahead-slices=4 / bframes=8 / bframe-bias=0 / b-adapt=2 / ref=4 / limit-refs=2 / limit-modes / weightp / weightb / aq-mode=1 / qg-size=32 / aq-strength=1.00 / cbqpoffs=0 / crqpoffs=0 / rd=6 / psy-rd=2.00 / rdoq-level=2 / psy-rdoq=1.00 / no-rd-refine / signhide / deblock=0:0 / sao / no-sao-non-deblock / b-pyramid / cutree / no-intra-refresh / rc=crf / crf=22.0 / qcomp=0.60 / qpmin=0 / qpmax=51 / qpstep=4 / ipratio=1.40 / pbratio=1.30
Language                                 : Japanese
Default                                  : Yes
Forced                                   : No

Audio #1
ID                                       : 2
Format                                   : Vorbis
Format settings, Floor                   : 1
Codec ID                                 : A_VORBIS
Duration                                 : 23 min 42 s
Bit rate mode                            : Variable
Bit rate                                 : 128 kb/s
Channel(s)                               : 2 channels
Sampling rate                            : 48.0 kHz
Frame rate                               : 63.415 FPS (757 SPF)
Compression mode                         : Lossy
Stream size                              : 18.7 MiB (10%)
Title                                    : English 2Ch OPUS
Writing application                      : Lavc57.48.101
Writing library                          : libVorbis (Turpakäräjiin) (20140122 (Turpakäräjiin))
Language                                 : English
Default                                  : Yes
Forced                                   : No

Audio #2
ID                                       : 3
Format                                   : Vorbis
Format settings, Floor                   : 1
Codec ID                                 : A_VORBIS
Duration                                 : 23 min 42 s
Bit rate mode                            : Variable
Bit rate                                 : 128 kb/s
Channel(s)                               : 2 channels
Sampling rate                            : 48.0 kHz
Frame rate                               : 64.045 FPS (749 SPF)
Compression mode                         : Lossy
Stream size                              : 18.5 MiB (10%)
Title                                    : Japanese 2Ch OPUS
Writing application                      : Lavc57.48.101
Writing library                          : libVorbis (Turpakäräjiin) (20140122 (Turpakäräjiin))
Language                                 : Japanese
Default                                  : No
Forced                                   : No

Text #1
ID                                       : 4
Format                                   : ASS
Codec ID                                 : S_TEXT/ASS
Codec ID/Info                            : Advanced Sub Station Alpha
Duration                                 : 23 min 40 s
Bit rate                                 : 439 b/s
Count of elements                        : 369
Compression mode                         : Lossless
Stream size                              : 76.1 KiB (0%)
Language                                 : English
Default                                  : Yes
Forced                                   : No

Text #2
ID                                       : 5
Format                                   : ASS
Codec ID                                 : S_TEXT/ASS
Codec ID/Info                            : Advanced Sub Station Alpha
Duration                                 : 23 min 40 s
Bit rate                                 : 439 b/s
Count of elements                        : 369
Compression mode                         : Lossless
Stream size                              : 76.1 KiB (0%)
Title                                    : Honorifics
Language                                 : English
Default                                  : No
Forced                                   : No

Menu
00:00:00.000                             : en:Chapter 01
00:02:42.746                             : en:Chapter 02
00:04:12.711                             : en:Chapter 03
00:10:47.856                             : en:Chapter 04
00:22:00.861                             : en:Chapter 05
00:23:30.743                             : en:Chapter 06

Other Files in this Torrent
Made in Abyss - 10 Poison and the Curse.mkv
beta
Anime DDL+NZB mirror
Current Time: 14/06/2024 08:00



About/FAQs

Discord