Made in Abyss - 03 Departure.mkv


File Size158.1 MB (165,817,259 bytes)
DownloadAnonFiles | ClickNUpload | DropAPK | Free | MultiUp
  • BdUpload
  • DownAce
  • Fichier
  • FileCloud
  • Filerio
  • FilesCdn
  • IndiShare
  • Kbagi
  • Turbobit
  • UpToBox
  • Uppit
| SolidFiles | ZippyShare
HashesCRC32: A0FAAB5F, MD5: 959B003BB066A8F4CA0C77FF356DCC3E, SHA1: FCDD195F34B5D3EA6B35780BC40F422A760ADFBF, SHA256: C627ED27EA214F73FC0407055C4ADD6AA09959BD8226F6FC4DB657989CE30567, ED2K: 6A8303F2ABE1A4272E5B616DDD2C1C8B
Screenshots
screenshotscreenshotscreenshotscreenshotscreenshot
SubtitlesAll Attachments | eng [ASS], Honorifics [eng, ASS]
Additional Info
General
Unique ID                                : 260709978708154738012962801361982983924 (0xC422EA5CDCA23D29ED599AD36E320EF4)
Complete name                            : Made in Abyss - 03 Departure.mkv
Format                                   : Matroska
Format version                           : Version 4
File size                                : 158 MiB
Duration                                 : 23 min 42 s
Overall bit rate mode                    : Variable
Overall bit rate                         : 933 kb/s
Movie name                               : [AnimeKaizoku] Made in Abyss - 003 - Departure (1080p BD x265 10bit Dual Audio) [SHINIGAMI_KIRA]
Encoded date                             : UTC 2019-04-25 18:38:43
Writing application                      : mkvmerge v19.0.0 ('Brave Captain') 64-bit
Writing library                          : libebml v1.3.5 + libmatroska v1.4.8 / Lavf57.41.100
Cover                                    : Yes
Attachments                              : cover.jpg / CronosPro-Semibold.ttf / CronosPro-SemiboldIt.ttf / DRIPDROP.TTF / playtime.ttf / saru(sRB).TTF

Video
ID                                       : 1
Format                                   : HEVC
Format/Info                              : High Efficiency Video Coding
Format profile                           : Main 10@L4@Main
Codec ID                                 : V_MPEGH/ISO/HEVC
Duration                                 : 23 min 42 s
Bit rate                                 : 707 kb/s
Width                                    : 1 920 pixels
Height                                   : 1 080 pixels
Display aspect ratio                     : 16:9
Frame rate mode                          : Constant
Frame rate                               : 23.976 (24000/1001) FPS
Color space                              : YUV
Chroma subsampling                       : 4:2:0
Bit depth                                : 10 bits
Bits/(Pixel*Frame)                       : 0.014
Stream size                              : 120 MiB (76%)
Title                                    : 1080p BD x265 10bit [SHINIGAMI_KIRA]
Writing library                          : x265 1.9+226-6561d8676581:[Windows][GCC 5.3.0][64 bit] 10bit
Encoding settings                        : wpp / ctu=64 / min-cu-size=8 / max-tu-size=32 / tu-intra-depth=2 / tu-inter-depth=2 / me=3 / subme=3 / merange=57 / rect / amp / max-merge=3 / temporal-mvp / no-early-skip / rskip / rdpenalty=0 / no-tskip / no-tskip-fast / strong-intra-smoothing / no-lossless / no-cu-lossless / no-constrained-intra / no-fast-intra / open-gop / no-temporal-layers / interlace=0 / keyint=250 / min-keyint=23 / scenecut=40 / rc-lookahead=30 / lookahead-slices=4 / bframes=8 / bframe-bias=0 / b-adapt=2 / ref=4 / limit-refs=2 / limit-modes / weightp / weightb / aq-mode=1 / qg-size=32 / aq-strength=1.00 / cbqpoffs=0 / crqpoffs=0 / rd=6 / psy-rd=2.00 / rdoq-level=2 / psy-rdoq=1.00 / no-rd-refine / signhide / deblock=0:0 / sao / no-sao-non-deblock / b-pyramid / cutree / no-intra-refresh / rc=crf / crf=22.0 / qcomp=0.60 / qpmin=0 / qpmax=51 / qpstep=4 / ipratio=1.40 / pbratio=1.30
Language                                 : Japanese
Default                                  : Yes
Forced                                   : No

Audio #1
ID                                       : 2
Format                                   : Vorbis
Format settings, Floor                   : 1
Codec ID                                 : A_VORBIS
Duration                                 : 23 min 42 s
Bit rate mode                            : Variable
Bit rate                                 : 128 kb/s
Channel(s)                               : 2 channels
Sampling rate                            : 48.0 kHz
Frame rate                               : 65.538 FPS (732 SPF)
Compression mode                         : Lossy
Stream size                              : 18.7 MiB (12%)
Title                                    : English 2Ch OPUS
Writing application                      : Lavc57.48.101
Writing library                          : libVorbis (Turpakäräjiin) (20140122 (Turpakäräjiin))
Language                                 : English
Default                                  : Yes
Forced                                   : No

Audio #2
ID                                       : 3
Format                                   : Vorbis
Format settings, Floor                   : 1
Codec ID                                 : A_VORBIS
Duration                                 : 23 min 42 s
Bit rate mode                            : Variable
Bit rate                                 : 128 kb/s
Channel(s)                               : 2 channels
Sampling rate                            : 48.0 kHz
Frame rate                               : 63.386 FPS (757 SPF)
Compression mode                         : Lossy
Stream size                              : 18.4 MiB (12%)
Title                                    : Japanese 2Ch OPUS
Writing application                      : Lavc57.48.101
Writing library                          : libVorbis (Turpakäräjiin) (20140122 (Turpakäräjiin))
Language                                 : Japanese
Default                                  : No
Forced                                   : No

Text #1
ID                                       : 4
Format                                   : ASS
Codec ID                                 : S_TEXT/ASS
Codec ID/Info                            : Advanced Sub Station Alpha
Duration                                 : 23 min 37 s
Bit rate                                 : 475 b/s
Count of elements                        : 453
Compression mode                         : Lossless
Stream size                              : 82.3 KiB (0%)
Language                                 : English
Default                                  : Yes
Forced                                   : No

Text #2
ID                                       : 5
Format                                   : ASS
Codec ID                                 : S_TEXT/ASS
Codec ID/Info                            : Advanced Sub Station Alpha
Duration                                 : 23 min 37 s
Bit rate                                 : 475 b/s
Count of elements                        : 453
Compression mode                         : Lossless
Stream size                              : 82.3 KiB (0%)
Title                                    : Honorifics
Language                                 : English
Default                                  : No
Forced                                   : No

Menu
00:00:00.000                             : en:Chapter 01
00:01:26.628                             : en:Chapter 02
00:02:56.635                             : en:Chapter 03
00:13:28.558                             : en:Chapter 04
00:18:21.892                             : en:Chapter 05
00:20:31.689                             : en:Chapter 06
00:23:30.618                             : en:Chapter 07

Other Files in this Torrent
Made in Abyss - 03 Departure.mkv
beta
Anime DDL+NZB mirror
Current Time: 14/06/2024 10:22



About/FAQs

Discord