Made in Abyss - 06 Seeker Camp.mkv


File Size167.9 MB (176,041,316 bytes)
DownloadAnonFiles | ClickNUpload | DropAPK | Free | MultiUp
  • BdUpload
  • DownAce
  • Fichier
  • FileCloud
  • Filerio
  • FilesCdn
  • IndiShare
  • Kbagi
  • Turbobit
  • UpToBox
  • Uppit
| SolidFiles | ZippyShare
HashesCRC32: 45BB6EBA, MD5: E023CF6FA23E49C251689266DAD4A3DD, SHA1: 3612D8C9F6DDE311CC7DE1B94BD93D68DF6B934C, SHA256: A70866332760331F62BFDC7F07CF76E4E260EACAA6129E16C83F9F231ECBB854, ED2K: 86D0865D40C4BC46C50489990D6C4D0E
Screenshots
screenshotscreenshotscreenshotscreenshotscreenshot
SubtitlesAll Attachments | eng [ASS], Honorifics [eng, ASS]
Additional Info
General
Unique ID                                : 205000424488271136901628173903836802535 (0x9A39A546EB8ED05ECE56DFB27250EDE7)
Complete name                            : Made in Abyss - 06 Seeker Camp.mkv
Format                                   : Matroska
Format version                           : Version 4
File size                                : 168 MiB
Duration                                 : 23 min 42 s
Overall bit rate mode                    : Variable
Overall bit rate                         : 990 kb/s
Movie name                               : [AnimeKaizoku] Made in Abyss - 006 - Seeker Camp (1080p BD x265 10bit Dual Audio) [SHINIGAMI_KIRA]
Encoded date                             : UTC 2019-04-25 18:38:59
Writing application                      : mkvmerge v19.0.0 ('Brave Captain') 64-bit
Writing library                          : libebml v1.3.5 + libmatroska v1.4.8 / Lavf57.41.100
Cover                                    : Yes
Attachments                              : cover.jpg / CronosPro-Semibold.ttf / CronosPro-SemiboldIt.ttf / DRIPDROP.TTF / KGShadowOfTheDay.ttf / playtime.ttf / saru(sRB).TTF

Video
ID                                       : 1
Format                                   : HEVC
Format/Info                              : High Efficiency Video Coding
Format profile                           : Main 10@L4@Main
Codec ID                                 : V_MPEGH/ISO/HEVC
Duration                                 : 23 min 42 s
Bit rate                                 : 756 kb/s
Width                                    : 1 920 pixels
Height                                   : 1 080 pixels
Display aspect ratio                     : 16:9
Frame rate mode                          : Constant
Frame rate                               : 23.976 (24000/1001) FPS
Color space                              : YUV
Chroma subsampling                       : 4:2:0
Bit depth                                : 10 bits
Bits/(Pixel*Frame)                       : 0.015
Stream size                              : 128 MiB (76%)
Title                                    : 1080p BD x265 10bit [SHINIGAMI_KIRA]
Writing library                          : x265 1.9+226-6561d8676581:[Windows][GCC 5.3.0][64 bit] 10bit
Encoding settings                        : wpp / ctu=64 / min-cu-size=8 / max-tu-size=32 / tu-intra-depth=2 / tu-inter-depth=2 / me=3 / subme=3 / merange=57 / rect / amp / max-merge=3 / temporal-mvp / no-early-skip / rskip / rdpenalty=0 / no-tskip / no-tskip-fast / strong-intra-smoothing / no-lossless / no-cu-lossless / no-constrained-intra / no-fast-intra / open-gop / no-temporal-layers / interlace=0 / keyint=250 / min-keyint=23 / scenecut=40 / rc-lookahead=30 / lookahead-slices=4 / bframes=8 / bframe-bias=0 / b-adapt=2 / ref=4 / limit-refs=2 / limit-modes / weightp / weightb / aq-mode=1 / qg-size=32 / aq-strength=1.00 / cbqpoffs=0 / crqpoffs=0 / rd=6 / psy-rd=2.00 / rdoq-level=2 / psy-rdoq=1.00 / no-rd-refine / signhide / deblock=0:0 / sao / no-sao-non-deblock / b-pyramid / cutree / no-intra-refresh / rc=crf / crf=22.0 / qcomp=0.60 / qpmin=0 / qpmax=51 / qpstep=4 / ipratio=1.40 / pbratio=1.30
Language                                 : Japanese
Default                                  : Yes
Forced                                   : No

Audio #1
ID                                       : 2
Format                                   : Vorbis
Format settings, Floor                   : 1
Codec ID                                 : A_VORBIS
Duration                                 : 23 min 42 s
Bit rate mode                            : Variable
Bit rate                                 : 128 kb/s
Channel(s)                               : 2 channels
Sampling rate                            : 48.0 kHz
Frame rate                               : 69.950 FPS (686 SPF)
Compression mode                         : Lossy
Stream size                              : 19.3 MiB (12%)
Title                                    : English 2Ch OPUS
Writing application                      : Lavc57.48.101
Writing library                          : libVorbis (Turpakäräjiin) (20140122 (Turpakäräjiin))
Language                                 : English
Default                                  : Yes
Forced                                   : No

Audio #2
ID                                       : 3
Format                                   : Vorbis
Format settings, Floor                   : 1
Codec ID                                 : A_VORBIS
Duration                                 : 23 min 42 s
Bit rate mode                            : Variable
Bit rate                                 : 128 kb/s
Channel(s)                               : 2 channels
Sampling rate                            : 48.0 kHz
Frame rate                               : 66.564 FPS (721 SPF)
Compression mode                         : Lossy
Stream size                              : 19.0 MiB (11%)
Title                                    : Japanese 2Ch OPUS
Writing application                      : Lavc57.48.101
Writing library                          : libVorbis (Turpakäräjiin) (20140122 (Turpakäräjiin))
Language                                 : Japanese
Default                                  : No
Forced                                   : No

Text #1
ID                                       : 4
Format                                   : ASS
Codec ID                                 : S_TEXT/ASS
Codec ID/Info                            : Advanced Sub Station Alpha
Duration                                 : 23 min 37 s
Bit rate                                 : 437 b/s
Count of elements                        : 339
Compression mode                         : Lossless
Stream size                              : 75.7 KiB (0%)
Language                                 : English
Default                                  : Yes
Forced                                   : No

Text #2
ID                                       : 5
Format                                   : ASS
Codec ID                                 : S_TEXT/ASS
Codec ID/Info                            : Advanced Sub Station Alpha
Duration                                 : 23 min 37 s
Bit rate                                 : 437 b/s
Count of elements                        : 339
Compression mode                         : Lossless
Stream size                              : 75.7 KiB (0%)
Title                                    : Honorifics
Language                                 : English
Default                                  : No
Forced                                   : No

Menu
00:00:00.000                             : en:Chapter 01
00:03:27.708                             : en:Chapter 02
00:04:57.756                             : en:Chapter 03
00:16:45.880                             : en:Chapter 04
00:22:00.778                             : en:Chapter 05
00:23:30.826                             : en:Chapter 06

Other Files in this Torrent
Made in Abyss - 06 Seeker Camp.mkv
beta
Anime DDL+NZB mirror
Current Time: 14/06/2024 09:03



About/FAQs

Discord