[Kulot] Gekkan Shoujo Nozaki-kun Special 01 [Dual-Audio][BDRip 1920x1080 x264 FLACx2] [8DFD9748].mkv


File Size133.0 MB (139,433,523 bytes)
DownloadAnonFiles | ClickNUpload | DownloadGG | DropAPK | MultiUp
  • BdUpload
  • DownAce
  • Fichier
  • FileCloud
  • Filerio
  • FilesCdn
  • IndiShare
  • Kbagi
  • Turbobit
  • UpToBox
  • Uppit
| SolidFiles | ZippyShare
HashesCRC32: 8DFD9748, MD5: 53370118D273490BEE1E88DFE8C4EEB6, SHA1: 5FA4F34F3EE20232EC257D07D4E0241306EF6BE4, SHA256: AD404C83B0244BEF8D6EC78842E504C7E1459BFCF42C90B09F4A1CEF852F8B82, ED2K: 00941DA22CB5E2F6487552013D223781
Screenshots
screenshotscreenshotscreenshot
SubtitlesAll Attachments | Signs/Songs [Quincentuple] [zxx, ASS], English [Quincentuple] [eng, ASS]
Additional Info
General
Unique ID                                : 225904186460551249607979220919819046042 (0xA9F39050644C29DA7C88C325612E0C9A)
Complete name                            : [Kulot] Gekkan Shoujo Nozaki-kun Special 01 [Dual-Audio][BDRip 1920x1080 x264 FLACx2] [8DFD9748].mkv
Format                                   : Matroska
Format version                           : Version 4
File size                                : 133 MiB
Duration                                 : 3 min 5 s
Overall bit rate mode                    : Variable
Overall bit rate                         : 5 998 kb/s
Encoded date                             : UTC 2021-12-09 10:25:28
Writing application                      : mkvmerge v51.0.0 ('I Wish') 64-bit
Writing library                          : libebml v1.4.0 + libmatroska v1.6.2
Attachments                              : AvenirLTStd-Black.otf / GothamRnd-Bold.otf / GothamRnd-BoldIta.otf / GothamRnd-MedIta.otf / GothamRnd-Medium.otf / OpenSans-Bold.otf / OpenSans-Regular.otf / pencilfied.ttf / RAVIE.TTF / RolandBecker Bold_0.ttf / RolandBecker_0.ttf

Video
ID                                       : 1
Format                                   : AVC
Format/Info                              : Advanced Video Codec
Format profile                           : High 10@L5
Format settings                          : CABAC / 13 Ref Frames
Format settings, CABAC                   : Yes
Format settings, ReFrames                : 13 frames
Codec ID                                 : V_MPEG4/ISO/AVC
Duration                                 : 3 min 4 s
Bit rate                                 : 4 610 kb/s
Width                                    : 1 920 pixels
Height                                   : 1 080 pixels
Display aspect ratio                     : 16:9
Frame rate mode                          : Constant
Frame rate                               : 23.976 (24000/1001) FPS
Color space                              : YUV
Chroma subsampling                       : 4:2:0
Bit depth                                : 10 bits
Scan type                                : Progressive
Bits/(Pixel*Frame)                       : 0.093
Stream size                              : 101 MiB (76%)
Title                                    : BDrip by VCB-Studio
Writing library                          : x264 core 136 r2348+704+51 d1baef6 tMod [10-bit@4:2:0 X86_64]
Encoding settings                        : cabac=1 / ref=13 / deblock=1:-1:-1 / analyse=0x3:0x133 / me=tesa / subme=10 / psy=1 / fade_compensate=0.00 / psy_rd=0.60:0.15 / mixed_ref=1 / me_range=24 / chroma_me=1 / trellis=2 / 8x8dct=1 / cqm=0 / deadzone=21,11 / fast_pskip=0 / chroma_qp_offset=-3 / threads=12 / lookahead_threads=2 / sliced_threads=0 / nr=0 / decimate=0 / interlaced=0 / bluray_compat=0 / constrained_intra=0 / fgo=0 / bframes=8 / b_pyramid=2 / b_adapt=2 / b_bias=0 / direct=3 / weightb=1 / open_gop=0 / weightp=2 / keyint=600 / keyint_min=1 / scenecut=40 / intra_refresh=0 / rc_lookahead=70 / rc=crf / mbtree=1 / crf=16.5000 / qcomp=0.75 / qpmin=0:0:0 / qpmax=81:81:81 / qpstep=5 / ip_ratio=1.40 / aq=3:0.80 / aq-sensitivity=10.00 / aq-factor=1.00:1.00:1.00 / aq2=0 / aq3=0
Language                                 : Japanese
Default                                  : Yes
Forced                                   : No
Color range                              : Limited
Matrix coefficients                      : BT.709

Audio #1
ID                                       : 2
Format                                   : FLAC
Format/Info                              : Free Lossless Audio Codec
Codec ID                                 : A_FLAC
Duration                                 : 3 min 5 s
Bit rate mode                            : Variable
Bit rate                                 : 625 kb/s
Channel(s)                               : 2 channels
Channel layout                           : L R
Sampling rate                            : 48.0 kHz
Frame rate                               : 11.721 FPS (4095 SPF)
Bit depth                                : 16 bits
Compression mode                         : Lossless
Stream size                              : 13.9 MiB (10%)
Title                                    : FLAC [Moby JJ]
Writing library                          : libFLAC 1.2.1 (UTC 2007-09-17)
Language                                 : English
Default                                  : Yes
Forced                                   : No

Audio #2
ID                                       : 3
Format                                   : FLAC
Format/Info                              : Free Lossless Audio Codec
Codec ID                                 : A_FLAC
Duration                                 : 3 min 4 s
Bit rate mode                            : Variable
Bit rate                                 : 734 kb/s
Channel(s)                               : 2 channels
Channel layout                           : L R
Sampling rate                            : 48.0 kHz
Frame rate                               : 11.719 FPS (4096 SPF)
Bit depth                                : 16 bits
Compression mode                         : Lossless
Stream size                              : 16.1 MiB (12%)
Title                                    : FLAC [VCB-Studio]
Writing library                          : libFLAC 1.3.2 (UTC 2017-01-01)
Language                                 : Japanese
Default                                  : No
Forced                                   : No

Text #1
ID                                       : 4
Format                                   : ASS
Codec ID                                 : S_TEXT/ASS
Codec ID/Info                            : Advanced Sub Station Alpha
Duration                                 : 2 min 52 s
Bit rate                                 : 6 476 b/s
Count of elements                        : 1172
Compression mode                         : Lossless
Stream size                              : 136 KiB (0%)
Title                                    : Signs/Songs [Quincentuple]
Language                                 : zxx
Default                                  : Yes
Forced                                   : No

Text #2
ID                                       : 5
Format                                   : ASS
Codec ID                                 : S_TEXT/ASS
Codec ID/Info                            : Advanced Sub Station Alpha
Duration                                 : 2 min 52 s
Bit rate                                 : 6 642 b/s
Count of elements                        : 1229
Compression mode                         : Lossless
Stream size                              : 140 KiB (0%)
Title                                    : English [Quincentuple]
Language                                 : English
Default                                  : No
Forced                                   : No

Other Files in this Torrent
[Kulot] Gekkan Shoujo Nozaki-kun Special 01 [Dual-Audio][BDRip 1920x1080 x264 FLACx2] [8DFD9748].mkv
beta
Anime DDL+NZB mirror
Current Time: 14/07/2024 14:46



About/FAQs

Discord