[Kulot] Gekkan Shoujo Nozaki-kun 03 [Dual-Audio][BDRip 1920x1080 x264 FLACx2] [85D4F4AC].mkv


File Size1.137 GB (1,220,908,958 bytes)
DownloadClickNUpload | DropAPK
DownloadGG: Part1, Part2
MultiUp: Part1
  • BdUpload
  • DownAce
  • Fichier
  • FileCloud
  • Filerio
  • FilesCdn
  • IndiShare
  • Kbagi
  • Turbobit
  • UpToBox
  • Uppit
, Part2
  • BdUpload
  • DownAce
  • Fichier
  • FileCloud
  • Filerio
  • FilesCdn
  • IndiShare
  • Kbagi
  • Turbobit
  • UpToBox
  • Uppit
, Part3
  • BdUpload
  • DownAce
  • Fichier
  • FileCloud
  • Filerio
  • FilesCdn
  • IndiShare
  • Kbagi
  • Turbobit
  • UpToBox
  • Uppit

SolidFiles: Part1, Part2, Part3
ZippyShare: Part1, Part2, Part3
HashesCRC32: 85D4F4AC, MD5: BD446FA4221058A0B769A51508E0CB7F, SHA1: 6575DFD3A6FA0F464652013E795DD3D2E02349B5, SHA256: F0A7F299B279610E41A0C531A1B37B2ACA5683F85D666C37F6738C34A8365E7C, ED2K: 15AFF07DE949F73E17E1324EF9AB1143
Screenshots
screenshotscreenshotscreenshotscreenshotscreenshot
SubtitlesAll Attachments | Signs/Songs [Quincentuple] [zxx, ASS], English [Quincentuple] [eng, ASS]
Additional Info
General
Unique ID                                : 194044990891190072516870580379594248306 (0x91FBB4B2B03D479C1CA2BA169AB3D072)
Complete name                            : [Kulot] Gekkan Shoujo Nozaki-kun 03 [Dual-Audio][BDRip 1920x1080 x264 FLACx2] [85D4F4AC].mkv
Format                                   : Matroska
Format version                           : Version 4
File size                                : 1.14 GiB
Duration                                 : 23 min 57 s
Overall bit rate mode                    : Variable
Overall bit rate                         : 6 792 kb/s
Encoded date                             : UTC 2021-12-09 10:10:49
Writing application                      : mkvmerge v51.0.0 ('I Wish') 64-bit
Writing library                          : libebml v1.4.0 + libmatroska v1.6.2
Attachments                              : ALBED.TTF / AmateurComic.ttf / ARLRDBD.TTF / AvenirLTStd-Black.otf / Big Fat Marker.ttf / calibrib.ttf / calibriz.ttf / erasdust.ttf / marker / pala.ttf / palab.ttf / Passing Notes.otf / pencilfied.ttf / Profile-Regular.otf / RaysHand-Regular.ttf / RolandBecker Bold.ttf / scott_.ttf / segoeprb.ttf / SEMPB_.TTF / ufonts.com_chianti-win95bt.ttf / AdobeGothicStd-Bold.ttf / ALBED_.TTF / Alberta_Regular.ttf / ALMAGRO.TTF / AmateurComic.otf / animeace2_reg.otf / Arial Rounded MT_0.ttf / ARLRDBD_1.TTF / AuriolLTStd-Black.otf / Big Fat Marker_0.ttf / calibri.otf / calibrib.otf / calibrii.otf / calibril.otf / calibrili.otf / calibriz.otf / Disney_Simple.ttf / edo.ttf / EFN_OknoFont.ttf / ERASDUS0.TTF / GothamRnd-Bold.otf / GothamRnd-BoldIta.otf / GothamRnd-MedIta.otf / GothamRnd-Medium.otf / Marker SD 1.2.ttf / Montara-BoldGothic.otf / Montara-Gothic.otf / Niew CroMagnon.ttf / NothingYouCouldSay.otf / OpenSans-Bold.otf / OpenSans-Regular.otf / OpenSans-Semibold.otf / pala.otf / palabi.otf / palai.otf / Palatino Linotype Bold.otf / PAPEJE.TTF / Passing Notes_0.otf / Pen_of_Truth___FREE_FONT_by_Sonira.ttf / Pinguino.ttf / plantc.ttf / PLASTIC TOMATO.TTF / Profile-Medium.otf / Prototype.ttf / raavi.otf / raavib.otf / RAVIE.TTF / RaysHand-Regular_0.ttf / rexlia rg.otf / RolandBecker Bold_0.ttf / RolandBecker_0.ttf / RubThis.TTF / scott__.ttf / segoepr.otf / segoeprb.otf / SEMPB__.TTF / SEMPER_.TTF / SEMPI__.TTF / AmateurComic_0.ttf / GothamRnd-Bold_0.otf / GothamRnd-BoldIta_0.otf / GothamRnd-MedIta_1.otf / GothamRnd-Medium_1.otf / OpenSans-Bold.ttf / OpenSans-Regular.ttf / OpenSans-Semibold.ttf / ufonts.com_cc_astro_city.ttf

Video
ID                                       : 1
Format                                   : AVC
Format/Info                              : Advanced Video Codec
Format profile                           : High 10@L5
Format settings                          : CABAC / 13 Ref Frames
Format settings, CABAC                   : Yes
Format settings, ReFrames                : 13 frames
Codec ID                                 : V_MPEG4/ISO/AVC
Duration                                 : 23 min 57 s
Bit rate                                 : 5 349 kb/s
Width                                    : 1 920 pixels
Height                                   : 1 080 pixels
Display aspect ratio                     : 16:9
Frame rate mode                          : Constant
Frame rate                               : 23.976 (24000/1001) FPS
Color space                              : YUV
Chroma subsampling                       : 4:2:0
Bit depth                                : 10 bits
Scan type                                : Progressive
Bits/(Pixel*Frame)                       : 0.108
Stream size                              : 916 MiB (79%)
Title                                    : BDrip by VCB-Studio
Writing library                          : x264 core 142 r2409+42 04be48a tMod [10-bit@4:2:0 X86_64]
Encoding settings                        : cabac=1 / ref=13 / deblock=1:-1:-1 / analyse=0x3:0x133 / me=tesa / subme=10 / psy=1 / fade_compensate=0.00 / psy_rd=0.60:0.15 / mixed_ref=1 / me_range=24 / chroma_me=1 / trellis=2 / 8x8dct=1 / cqm=0 / deadzone=21,11 / fast_pskip=0 / chroma_qp_offset=-3 / threads=12 / lookahead_threads=2 / sliced_threads=0 / nr=0 / decimate=0 / interlaced=0 / bluray_compat=0 / constrained_intra=0 / fgo=0 / bframes=8 / b_pyramid=2 / b_adapt=2 / b_bias=0 / direct=3 / weightb=1 / open_gop=0 / weightp=2 / keyint=600 / keyint_min=1 / scenecut=40 / intra_refresh=0 / rc_lookahead=70 / rc=crf / mbtree=1 / crf=16.0000 / qcomp=0.80 / qpmin=0:0:0 / qpmax=81:81:81 / qpstep=4 / ip_ratio=1.40 / aq=3:0.80 / aq-sensitivity=10.00 / aq-factor=1.00:1.00:1.00 / aq2=0 / aq3=0
Language                                 : Japanese
Default                                  : Yes
Forced                                   : No
Color range                              : Limited
Matrix coefficients                      : BT.709

Audio #1
ID                                       : 2
Format                                   : FLAC
Format/Info                              : Free Lossless Audio Codec
Codec ID                                 : A_FLAC
Duration                                 : 23 min 57 s
Bit rate mode                            : Variable
Bit rate                                 : 621 kb/s
Channel(s)                               : 2 channels
Channel layout                           : L R
Sampling rate                            : 48.0 kHz
Frame rate                               : 11.719 FPS (4096 SPF)
Bit depth                                : 16 bits
Compression mode                         : Lossless
Stream size                              : 106 MiB (9%)
Title                                    : FLAC [Moby JJ]
Writing library                          : libFLAC 1.2.1 (UTC 2007-09-17)
Language                                 : English
Default                                  : Yes
Forced                                   : No

Audio #2
ID                                       : 3
Format                                   : FLAC
Format/Info                              : Free Lossless Audio Codec
Codec ID                                 : A_FLAC
Duration                                 : 23 min 57 s
Bit rate mode                            : Variable
Bit rate                                 : 719 kb/s
Channel(s)                               : 2 channels
Channel layout                           : L R
Sampling rate                            : 48.0 kHz
Frame rate                               : 11.719 FPS (4096 SPF)
Bit depth                                : 16 bits
Compression mode                         : Lossless
Stream size                              : 123 MiB (11%)
Title                                    : FLAC [VCB-Studio]
Writing library                          : libFLAC 1.3.2 (UTC 2017-01-01)
Language                                 : Japanese
Default                                  : No
Forced                                   : No

Text #1
ID                                       : 4
Format                                   : ASS
Codec ID                                 : S_TEXT/ASS
Codec ID/Info                            : Advanced Sub Station Alpha
Duration                                 : 23 min 29 s
Bit rate                                 : 132 b/s
Count of elements                        : 209
Compression mode                         : Lossless
Stream size                              : 22.8 KiB (0%)
Title                                    : Signs/Songs [Quincentuple]
Language                                 : zxx
Default                                  : Yes
Forced                                   : No

Text #2
ID                                       : 5
Format                                   : ASS
Codec ID                                 : S_TEXT/ASS
Codec ID/Info                            : Advanced Sub Station Alpha
Duration                                 : 23 min 53 s
Bit rate                                 : 261 b/s
Count of elements                        : 644
Compression mode                         : Lossless
Stream size                              : 45.7 KiB (0%)
Title                                    : English [Quincentuple]
Language                                 : English
Default                                  : No
Forced                                   : No

Menu
00:00:00.000                             : en:Chapter 01
00:01:26.002                             : en:Chapter 02
00:02:56.050                             : en:Chapter 03
00:12:56.025                             : en:Chapter 04
00:20:39.988                             : en:Chapter 05
00:22:10.037                             : en:Chapter 06
00:23:41.002                             : en:Chapter 07

Other Files in this Torrent
[Kulot] Gekkan Shoujo Nozaki-kun 03 [Dual-Audio][BDRip 1920x1080 x264 FLACx2] [85D4F4AC].mkv
beta
Anime DDL+NZB mirror
Current Time: 14/07/2024 14:38



About/FAQs

Discord