[Kulot] Gekkan Shoujo Nozaki-kun 12 [Dual-Audio][BDRip 1920x1080 x264 FLACx2] [A4ECF340].mkv


File Size1.387 GB (1,489,627,670 bytes)
DownloadClickNUpload | DropAPK
DownloadGG: Part1, Part2
MultiUp: Part1
  • BdUpload
  • DownAce
  • Fichier
  • FileCloud
  • Filerio
  • FilesCdn
  • IndiShare
  • Kbagi
  • Turbobit
  • UpToBox
  • Uppit
, Part2
  • BdUpload
  • DownAce
  • Fichier
  • FileCloud
  • Filerio
  • FilesCdn
  • IndiShare
  • Kbagi
  • Turbobit
  • UpToBox
  • Uppit
, Part3
  • BdUpload
  • DownAce
  • Fichier
  • FileCloud
  • Filerio
  • FilesCdn
  • IndiShare
  • Kbagi
  • Turbobit
  • UpToBox
  • Uppit

SolidFiles: Part1, Part2, Part3
ZippyShare: Part1, Part2, Part3
HashesCRC32: A4ECF340, MD5: 41EDD14FD30A85A99B1C6DFBD2176601, SHA1: F3582C1F280CD55F42134BE73B1D865397F9FAA2, SHA256: B63ACD05E2E35C940C680EAE7B361D47BAF4043B8B089B94156783CEC4B1CB57, ED2K: 0F2996496E52A3872A3D0E31B3B74640
Screenshots
screenshotscreenshotscreenshotscreenshotscreenshot
SubtitlesAll Attachments | Signs/Songs [Quincentuple] [zxx, ASS], English [Quincentuple] [eng, ASS]
Additional Info
General
Unique ID                                : 62601114182823470855551934337100410126 (0x2F188939A239F2772FD1468DC5F1ED0E)
Complete name                            : [Kulot] Gekkan Shoujo Nozaki-kun 12 [Dual-Audio][BDRip 1920x1080 x264 FLACx2] [A4ECF340].mkv
Format                                   : Matroska
Format version                           : Version 4
File size                                : 1.39 GiB
Duration                                 : 23 min 41 s
Overall bit rate mode                    : Variable
Overall bit rate                         : 8 381 kb/s
Encoded date                             : UTC 2021-12-09 10:23:07
Writing application                      : mkvmerge v51.0.0 ('I Wish') 64-bit
Writing library                          : libebml v1.4.0 + libmatroska v1.6.2
Attachments                              : AdobeGothicStd-Bold.ttf / ALBED.TTF / ALBED_.TTF / Alberta_Regular.ttf / ALMAGRO.TTF / AmateurComic.otf / AmateurComic.ttf / animeace2_reg.otf / Arial Rounded MT_0.ttf / ARLRDBD.TTF / ARLRDBD_1.TTF / AuriolLTStd-Black.otf / AvenirLTStd-Black.otf / Big Fat Marker.ttf / Big Fat Marker_0.ttf / calibri.otf / calibrib.otf / calibrib.ttf / calibrii.otf / calibril.otf / calibrili.otf / calibriz.otf / calibriz.ttf / Disney_Simple.ttf / edo.ttf / EFN_OknoFont.ttf / ERASDUS0.TTF / erasdust.ttf / GothamRnd-Bold.otf / GothamRnd-BoldIta.otf / GothamRnd-MedIta.otf / GothamRnd-Medium.otf / marker / Marker SD 1.2.ttf / Montara-BoldGothic.otf / Montara-Gothic.otf / Niew CroMagnon.ttf / NothingYouCouldSay.otf / OpenSans-Bold.otf / OpenSans-Regular.otf / OpenSans-Semibold.otf / pala.otf / pala.ttf / palab.ttf / palabi.otf / palai.otf / Palatino Linotype Bold.otf / PAPEJE.TTF / Passing Notes.otf / Passing Notes_0.otf / Pen_of_Truth___FREE_FONT_by_Sonira.ttf / pencilfied.ttf / Pinguino.ttf / plantc.ttf / PLASTIC TOMATO.TTF / Profile-Medium.otf / Profile-Regular.otf / Prototype.ttf / raavi.otf / raavib.otf / RAVIE.TTF / RaysHand-Regular.ttf / RaysHand-Regular_0.ttf / rexlia rg.otf / RolandBecker Bold.ttf / RolandBecker Bold_0.ttf / RolandBecker_0.ttf / RubThis.TTF / scott_.ttf / scott__.ttf / segoepr.otf / segoeprb.otf / segoeprb.ttf / SEMPB_.TTF / SEMPB__.TTF / SEMPER_.TTF / SEMPI__.TTF / ufonts.com_chianti-win95bt.ttf / AmateurComic_0.ttf / GothamRnd-Bold_0.otf / GothamRnd-BoldIta_0.otf / GothamRnd-MedIta_1.otf / GothamRnd-Medium_1.otf / OpenSans-Bold.ttf / OpenSans-Regular.ttf / OpenSans-Semibold.ttf / ufonts.com_cc_astro_city.ttf

Video
ID                                       : 1
Format                                   : AVC
Format/Info                              : Advanced Video Codec
Format profile                           : High 10@L5
Format settings                          : CABAC / 13 Ref Frames
Format settings, CABAC                   : Yes
Format settings, ReFrames                : 13 frames
Codec ID                                 : V_MPEG4/ISO/AVC
Duration                                 : 23 min 41 s
Bit rate                                 : 6 899 kb/s
Width                                    : 1 920 pixels
Height                                   : 1 080 pixels
Display aspect ratio                     : 16:9
Frame rate mode                          : Constant
Frame rate                               : 23.976 (24000/1001) FPS
Color space                              : YUV
Chroma subsampling                       : 4:2:0
Bit depth                                : 10 bits
Scan type                                : Progressive
Bits/(Pixel*Frame)                       : 0.139
Stream size                              : 1.14 GiB (82%)
Title                                    : BDrip by VCB-Studio
Writing library                          : x264 core 142 r2409+42 04be48a tMod [10-bit@4:2:0 X86_64]
Encoding settings                        : cabac=1 / ref=13 / deblock=1:-1:-1 / analyse=0x3:0x133 / me=tesa / subme=10 / psy=1 / fade_compensate=0.00 / psy_rd=0.60:0.15 / mixed_ref=1 / me_range=24 / chroma_me=1 / trellis=2 / 8x8dct=1 / cqm=0 / deadzone=21,11 / fast_pskip=0 / chroma_qp_offset=-3 / threads=12 / lookahead_threads=2 / sliced_threads=0 / nr=0 / decimate=0 / interlaced=0 / bluray_compat=0 / constrained_intra=0 / fgo=0 / bframes=8 / b_pyramid=2 / b_adapt=2 / b_bias=0 / direct=3 / weightb=1 / open_gop=0 / weightp=2 / keyint=600 / keyint_min=1 / scenecut=40 / intra_refresh=0 / rc_lookahead=70 / rc=crf / mbtree=1 / crf=16.0000 / qcomp=0.80 / qpmin=0:0:0 / qpmax=81:81:81 / qpstep=4 / vbv_maxrate=20000 / vbv_bufsize=23000 / crf_max=0.0 / nal_hrd=none / filler=0 / ip_ratio=1.40 / aq=3:0.80 / aq-sensitivity=10.00 / aq-factor=1.00:1.00:1.00 / aq2=0 / aq3=0
Language                                 : Japanese
Default                                  : Yes
Forced                                   : No
Color range                              : Limited
Matrix coefficients                      : BT.709

Audio #1
ID                                       : 2
Format                                   : FLAC
Format/Info                              : Free Lossless Audio Codec
Codec ID                                 : A_FLAC
Duration                                 : 23 min 41 s
Bit rate mode                            : Variable
Bit rate                                 : 633 kb/s
Channel(s)                               : 2 channels
Channel layout                           : L R
Sampling rate                            : 48.0 kHz
Frame rate                               : 11.719 FPS (4096 SPF)
Bit depth                                : 16 bits
Compression mode                         : Lossless
Delay relative to video                  : 9 ms
Stream size                              : 107 MiB (8%)
Title                                    : FLAC [Moby JJ]
Writing library                          : libFLAC 1.2.1 (UTC 2007-09-17)
Language                                 : English
Default                                  : Yes
Forced                                   : No

Audio #2
ID                                       : 3
Format                                   : FLAC
Format/Info                              : Free Lossless Audio Codec
Codec ID                                 : A_FLAC
Duration                                 : 23 min 41 s
Bit rate mode                            : Variable
Bit rate                                 : 745 kb/s
Channel(s)                               : 2 channels
Channel layout                           : L R
Sampling rate                            : 48.0 kHz
Frame rate                               : 11.719 FPS (4096 SPF)
Bit depth                                : 16 bits
Compression mode                         : Lossless
Stream size                              : 126 MiB (9%)
Title                                    : FLAC [VCB-Studio]
Writing library                          : libFLAC 1.3.2 (UTC 2017-01-01)
Language                                 : Japanese
Default                                  : No
Forced                                   : No

Text #1
ID                                       : 4
Format                                   : ASS
Codec ID                                 : S_TEXT/ASS
Codec ID/Info                            : Advanced Sub Station Alpha
Duration                                 : 22 min 38 s
Bit rate                                 : 298 b/s
Count of elements                        : 421
Compression mode                         : Lossless
Stream size                              : 49.6 KiB (0%)
Title                                    : Signs/Songs [Quincentuple]
Language                                 : zxx
Default                                  : Yes
Forced                                   : No

Text #2
ID                                       : 5
Format                                   : ASS
Codec ID                                 : S_TEXT/ASS
Codec ID/Info                            : Advanced Sub Station Alpha
Duration                                 : 23 min 27 s
Bit rate                                 : 417 b/s
Count of elements                        : 817
Compression mode                         : Lossless
Stream size                              : 71.8 KiB (0%)
Title                                    : English [Quincentuple]
Language                                 : English
Default                                  : No
Forced                                   : No

Menu
00:00:00.000                             : en:Chapter 01
00:00:47.047                             : en:Chapter 02
00:02:17.012                             : en:Chapter 03
00:08:54.034                             : en:Chapter 04
00:21:00.134                             : en:Chapter 05
00:22:26.929                             : en:Chapter 06

Other Files in this Torrent
[Kulot] Gekkan Shoujo Nozaki-kun 12 [Dual-Audio][BDRip 1920x1080 x264 FLACx2] [A4ECF340].mkv
beta
Anime DDL+NZB mirror
Current Time: 19/07/2024 21:05



About/FAQs

Discord