File Size512.8 MB (537,698,917 bytes)
DownloadClickNUpload | DiskoKosmiko | Go4Up | Jheberg | MultiUp | OpenLoad
Sendspace: Part1, Part2
SolidFiles: Part1, Part2
ZippyShare: Part1, Part2
HashesCRC32: 5BFC03DE, MD5: 4EEE0A992EF8DC425D531722012EB38C, SHA1: 35D9EDEF583A2579CBFC0F70D02BD49C91872723, SHA256: 6F76F0C1347308B25DDEEEBEE039DA565568C3521ABB6DCAE77D4853713B9F74, ED2K: 9AB245D0CA021EF5562C1AE51BF4E188
Screenshots
screenshotscreenshotscreenshotscreenshotscreenshot
SubtitlesAll Attachments | eng [ASS]
Additional Info
General
Unique ID                                : 317108981163360159927351162964683327960 (0xEE90F7DEF2A6C5877EB3FDECE0B509D8)
Complete name                            : Koyomimonogatari E08 - Koyomi Mountain.mkv
Format                                   : Matroska
Format version                           : Version 4 / Version 2
File size                                : 513 MiB
Duration                                 : 12 min 13 s
Overall bit rate mode                    : Variable
Overall bit rate                         : 5 867 kb/s
Movie name                               : Koyomimonogatari E08 - Koyomi Mountain
Encoded date                             : UTC 2018-04-25 00:46:28
Writing application                      : mkvmerge v22.0.0 ('At The End Of The World') 64-bit
Writing library                          : libebml v1.3.5 + libmatroska v1.4.8
Attachments                              : AdobeGurmukhi-Bold.otf / AdobeGurmukhi-Regular.otf / CENTURY.TTF / MyriadPro-It.otf / MyriadPro-Regular.otf / yumindb.ttf

Video
ID                                       : 1
Format                                   : AVC
Format/Info                              : Advanced Video Codec
Format profile                           : High 10@L5.2
Format settings, CABAC                   : Yes
Format settings, ReFrames                : 16 frames
Codec ID                                 : V_MPEG4/ISO/AVC
Duration                                 : 12 min 13 s
Bit rate                                 : 4 283 kb/s
Width                                    : 1 920 pixels
Height                                   : 1 080 pixels
Display aspect ratio                     : 16:9
Frame rate mode                          : Constant
Frame rate                               : 23.976 (24000/1001) FPS
Color space                              : YUV
Chroma subsampling                       : 4:2:0
Bit depth                                : 10 bits
Scan type                                : Progressive
Bits/(Pixel*Frame)                       : 0.086
Stream size                              : 374 MiB (73%)
Title                                    : Hi10 1080p h.264
Writing library                          : x264 core 148
Encoding settings                        : cabac=1 / ref=16 / deblock=1:1:1 / analyse=0x3:0x133 / me=umh / subme=10 / psy=1 / psy_rd=0.40:0.00 / mixed_ref=1 / me_range=24 / chroma_me=1 / trellis=2 / 8x8dct=1 / cqm=0 / deadzone=21,11 / fast_pskip=1 / chroma_qp_offset=-2 / threads=9 / lookahead_threads=2 / sliced_threads=0 / nr=0 / decimate=1 / interlaced=0 / bluray_compat=0 / constrained_intra=0 / bframes=10 / b_pyramid=2 / b_adapt=2 / b_bias=0 / direct=3 / weightb=1 / open_gop=0 / weightp=2 / keyint=240 / keyint_min=24 / scenecut=40 / intra_refresh=0 / rc_lookahead=60 / rc=crf / mbtree=1 / crf=14.0 / qcomp=0.60 / qpmin=0 / qpmax=81 / qpstep=4 / vbv_maxrate=720000 / vbv_bufsize=720000 / crf_max=0.0 / nal_hrd=none / filler=0 / ip_ratio=1.40 / aq=1:0.60
Language                                 : Japanese
Default                                  : Yes
Forced                                   : No
Color range                              : Limited
Color primaries                          : BT.709
Transfer characteristics                 : BT.709
Matrix coefficients                      : BT.709

Audio
ID                                       : 2
Format                                   : FLAC
Format/Info                              : Free Lossless Audio Codec
Codec ID                                 : A_FLAC
Duration                                 : 12 min 13 s
Bit rate mode                            : Variable
Bit rate                                 : 1 431 kb/s
Channel(s)                               : 2 channels
Channel positions                        : Front: L R
Sampling rate                            : 48.0 kHz
Frame rate                               : 11.719 FPS (4096 spf)
Bit depth                                : 24 bits
Stream size                              : 125 MiB (24%)
Title                                    : 2.0 FLAC
Writing library                          : libFLAC 1.3.1 (UTC 2014-11-25)
Language                                 : Japanese
Default                                  : Yes
Forced                                   : No

Text
ID                                       : 3
Format                                   : ASS
Codec ID                                 : S_TEXT/ASS
Codec ID/Info                            : Advanced Sub Station Alpha
Duration                                 : 11 min 55 s
Bit rate                                 : 169 b/s
Count of elements                        : 207
Compression mode                         : Lossless
Stream size                              : 14.8 KiB (0%)
Language                                 : English
Default                                  : Yes
Forced                                   : No

Menu
00:00:00.000                             : en:OP
00:01:30.090                             : en:Episode
00:10:43.142                             : en:ED

Other Files in this Torrent
Koyomimonogatari E08 - Koyomi Mountain.mkv
beta
Anime DDL+NZB mirror
Current Time: 19/07/2024 15:55



About/FAQs

Discord