File Size567.8 MB (595,393,774 bytes)
DownloadClickNUpload | DiskoKosmiko | Go4Up | Jheberg | MultiUp | OpenLoad
Sendspace: Part1, Part2
SolidFiles: Part1, Part2
ZippyShare: Part1, Part2
HashesCRC32: 1AE088E0, MD5: 9100220B9747DE291B08D775B1A3B2D9, SHA1: 3E6E63B709E767856C2F958124B252E47E36E6F1, SHA256: CC010CBB091279DB390173D4582AC517A06D3EA06BA7677D0E78A27B44E31EFF, ED2K: 184A5051858ABAB36CC7D9877948069A
Screenshots
screenshotscreenshotscreenshotscreenshotscreenshot
SubtitlesAll Attachments | eng [ASS]
Additional Info
General
Unique ID                                : 25535502725795889366627335232580266156 (0x1335F57CBA8D5A05E5CA4D4CEAA0A8AC)
Complete name                            : Koyomimonogatari E04 - Koyomi Water.mkv
Format                                   : Matroska
Format version                           : Version 4 / Version 2
File size                                : 568 MiB
Duration                                 : 12 min 34 s
Overall bit rate mode                    : Variable
Overall bit rate                         : 6 310 kb/s
Movie name                               : Koyomimonogatari E04 - Koyomi Water
Encoded date                             : UTC 2018-04-25 00:46:06
Writing application                      : mkvmerge v22.0.0 ('At The End Of The World') 64-bit
Writing library                          : libebml v1.3.5 + libmatroska v1.4.8
Attachments                              : AdobeGurmukhi-Bold.otf / AdobeGurmukhi-Regular.otf / CENTURY.TTF / DKSushiBar.ttf / HelveticaNeue-Med.ttf / KozMinPr6N-Bold.otf / MyriadPro-It.otf / MyriadPro-Regular.otf

Video
ID                                       : 1
Format                                   : AVC
Format/Info                              : Advanced Video Codec
Format profile                           : High 10@L5.2
Format settings, CABAC                   : Yes
Format settings, ReFrames                : 16 frames
Codec ID                                 : V_MPEG4/ISO/AVC
Duration                                 : 12 min 34 s
Bit rate                                 : 4 850 kb/s
Width                                    : 1 920 pixels
Height                                   : 1 080 pixels
Display aspect ratio                     : 16:9
Frame rate mode                          : Constant
Frame rate                               : 23.976 (24000/1001) FPS
Color space                              : YUV
Chroma subsampling                       : 4:2:0
Bit depth                                : 10 bits
Scan type                                : Progressive
Bits/(Pixel*Frame)                       : 0.098
Stream size                              : 436 MiB (77%)
Title                                    : Hi10 1080p h.264
Writing library                          : x264 core 148
Encoding settings                        : cabac=1 / ref=16 / deblock=1:1:1 / analyse=0x3:0x133 / me=umh / subme=10 / psy=1 / psy_rd=0.40:0.00 / mixed_ref=1 / me_range=24 / chroma_me=1 / trellis=2 / 8x8dct=1 / cqm=0 / deadzone=21,11 / fast_pskip=1 / chroma_qp_offset=-2 / threads=9 / lookahead_threads=2 / sliced_threads=0 / nr=0 / decimate=1 / interlaced=0 / bluray_compat=0 / constrained_intra=0 / bframes=10 / b_pyramid=2 / b_adapt=2 / b_bias=0 / direct=3 / weightb=1 / open_gop=0 / weightp=2 / keyint=240 / keyint_min=24 / scenecut=40 / intra_refresh=0 / rc_lookahead=60 / rc=crf / mbtree=1 / crf=14.0 / qcomp=0.60 / qpmin=0 / qpmax=81 / qpstep=4 / vbv_maxrate=720000 / vbv_bufsize=720000 / crf_max=0.0 / nal_hrd=none / filler=0 / ip_ratio=1.40 / aq=1:0.60
Language                                 : Japanese
Default                                  : Yes
Forced                                   : No
Color range                              : Limited
Color primaries                          : BT.709
Transfer characteristics                 : BT.709
Matrix coefficients                      : BT.709

Audio
ID                                       : 2
Format                                   : FLAC
Format/Info                              : Free Lossless Audio Codec
Codec ID                                 : A_FLAC
Duration                                 : 12 min 34 s
Bit rate mode                            : Variable
Bit rate                                 : 1 377 kb/s
Channel(s)                               : 2 channels
Channel positions                        : Front: L R
Sampling rate                            : 48.0 kHz
Frame rate                               : 11.720 FPS (4096 spf)
Bit depth                                : 24 bits
Stream size                              : 124 MiB (22%)
Title                                    : 2.0 FLAC
Writing library                          : libFLAC 1.3.1 (UTC 2014-11-25)
Language                                 : Japanese
Default                                  : Yes
Forced                                   : No

Text
ID                                       : 3
Format                                   : ASS
Codec ID                                 : S_TEXT/ASS
Codec ID/Info                            : Advanced Sub Station Alpha
Duration                                 : 12 min 18 s
Bit rate                                 : 171 b/s
Count of elements                        : 222
Compression mode                         : Lossless
Stream size                              : 15.4 KiB (0%)
Language                                 : English
Default                                  : Yes
Forced                                   : No

Menu
00:00:00.000                             : en:OP
00:01:29.965                             : en:Episode
00:11:04.747                             : en:ED

Other Files in this Torrent
Koyomimonogatari E04 - Koyomi Water.mkv
beta
Anime DDL+NZB mirror
Current Time: 19/07/2024 15:59



About/FAQs

Discord