File Size631.1 MB (661,747,310 bytes)
DownloadClickNUpload | DiskoKosmiko | Go4Up | Jheberg | MultiUp | OpenLoad
Sendspace: Part1, Part2, Part3
SolidFiles: Part1, Part2
ZippyShare: Part1, Part2
HashesCRC32: 1EA33B1C, MD5: C9CCD811CCA27F9037FFFA8933A65475, SHA1: B0A9E3D6B78952A38790DDB2ABC167B92CFB73BF, SHA256: FDD45CD3F2711A13EC3D4ABDA8729A0B99217815626D54CC8F5CE23438A04B13, ED2K: A18DBC7BE046067AD5B3B8EE6D87E005
Screenshots
screenshotscreenshotscreenshotscreenshotscreenshot
SubtitlesAll Attachments | eng [ASS]
Additional Info
General
Unique ID                                : 286480068086543786037165190017573904000 (0xD7860DDD6A9C5D2544C22A4645A2DE80)
Complete name                            : Koyomimonogatari E03 - Koyomi Sand.mkv
Format                                   : Matroska
Format version                           : Version 4 / Version 2
File size                                : 631 MiB
Duration                                 : 11 min 54 s
Overall bit rate mode                    : Variable
Overall bit rate                         : 7 413 kb/s
Movie name                               : Koyomimonogatari E03 - Koyomi Sand
Encoded date                             : UTC 2018-04-25 00:46:00
Writing application                      : mkvmerge v22.0.0 ('At The End Of The World') 64-bit
Writing library                          : libebml v1.3.5 + libmatroska v1.4.8
Attachments                              : AdobeGurmukhi-Bold.otf / CENTURY.TTF / HelveticaNeue-Med.ttf / MyriadPro-It.otf / MyriadPro-Regular.otf / Transport-h.ttf / UDDigiKyokashoN-R.ttc

Video
ID                                       : 1
Format                                   : AVC
Format/Info                              : Advanced Video Codec
Format profile                           : High 10@L5.2
Format settings, CABAC                   : Yes
Format settings, ReFrames                : 16 frames
Codec ID                                 : V_MPEG4/ISO/AVC
Duration                                 : 11 min 54 s
Bit rate                                 : 5 895 kb/s
Width                                    : 1 920 pixels
Height                                   : 1 080 pixels
Display aspect ratio                     : 16:9
Frame rate mode                          : Constant
Frame rate                               : 23.976 (24000/1001) FPS
Color space                              : YUV
Chroma subsampling                       : 4:2:0
Bit depth                                : 10 bits
Scan type                                : Progressive
Bits/(Pixel*Frame)                       : 0.119
Stream size                              : 502 MiB (80%)
Title                                    : Hi10 1080p h.264
Writing library                          : x264 core 148
Encoding settings                        : cabac=1 / ref=16 / deblock=1:1:1 / analyse=0x3:0x133 / me=umh / subme=10 / psy=1 / psy_rd=0.40:0.00 / mixed_ref=1 / me_range=24 / chroma_me=1 / trellis=2 / 8x8dct=1 / cqm=0 / deadzone=21,11 / fast_pskip=1 / chroma_qp_offset=-2 / threads=9 / lookahead_threads=2 / sliced_threads=0 / nr=0 / decimate=1 / interlaced=0 / bluray_compat=0 / constrained_intra=0 / bframes=10 / b_pyramid=2 / b_adapt=2 / b_bias=0 / direct=3 / weightb=1 / open_gop=0 / weightp=2 / keyint=240 / keyint_min=24 / scenecut=40 / intra_refresh=0 / rc_lookahead=60 / rc=crf / mbtree=1 / crf=14.0 / qcomp=0.60 / qpmin=0 / qpmax=81 / qpstep=4 / vbv_maxrate=720000 / vbv_bufsize=720000 / crf_max=0.0 / nal_hrd=none / filler=0 / ip_ratio=1.40 / aq=1:0.60
Language                                 : Japanese
Default                                  : Yes
Forced                                   : No
Color range                              : Limited
Color primaries                          : BT.709
Transfer characteristics                 : BT.709
Matrix coefficients                      : BT.709

Audio
ID                                       : 2
Format                                   : FLAC
Format/Info                              : Free Lossless Audio Codec
Codec ID                                 : A_FLAC
Duration                                 : 11 min 54 s
Bit rate mode                            : Variable
Bit rate                                 : 1 449 kb/s
Channel(s)                               : 2 channels
Channel positions                        : Front: L R
Sampling rate                            : 48.0 kHz
Frame rate                               : 11.719 FPS (4096 spf)
Bit depth                                : 24 bits
Stream size                              : 123 MiB (20%)
Title                                    : 2.0 FLAC
Writing library                          : libFLAC 1.3.1 (UTC 2014-11-25)
Language                                 : Japanese
Default                                  : Yes
Forced                                   : No

Text
ID                                       : 3
Format                                   : ASS
Codec ID                                 : S_TEXT/ASS
Codec ID/Info                            : Advanced Sub Station Alpha
Duration                                 : 11 min 33 s
Bit rate                                 : 156 b/s
Count of elements                        : 204
Compression mode                         : Lossless
Stream size                              : 13.3 KiB (0%)
Language                                 : English
Default                                  : Yes
Forced                                   : No

Menu
00:00:00.000                             : en:OP
00:01:30.006                             : en:Episode
00:10:24.040                             : en:ED

Other Files in this Torrent
Koyomimonogatari E03 - Koyomi Sand.mkv
beta
Anime DDL+NZB mirror
Current Time: 19/07/2024 15:41



About/FAQs

Discord