File Size921.5 MB (966,256,562 bytes)
DownloadClickNUpload | DiskoKosmiko | Jheberg | MultiUp | OpenLoad
Sendspace: Part1, Part2, Part3, Part4
SolidFiles: Part1, Part2
ZippyShare: Part1, Part2
HashesCRC32: E66CA03A, MD5: 5CF687E5CC33A7D3F7EE3061C94972DA, SHA1: 1EFEACDD6344F7C810945F2CEC2871AE3D863C1F, SHA256: DBA7D750F027B31285C71631EE94E52A62BA124F0B51FEBF74027ADFCE374FAF, ED2K: C6BE6416174BEF7756F0A538BA4C3C28
Screenshots
screenshotscreenshotscreenshotscreenshotscreenshot
SubtitlesAll Attachments | eng [ASS]
Additional Info
General
Unique ID                                : 213807879518789210090735551585735985552 (0xA0D9E65616D7FFB021D54B85032CC990)
Complete name                            : Koyomimonogatari E06 - Koyomi Tree.mkv
Format                                   : Matroska
Format version                           : Version 4 / Version 2
File size                                : 921 MiB
Duration                                 : 14 min 58 s
Overall bit rate mode                    : Variable
Overall bit rate                         : 8 606 kb/s
Movie name                               : Koyomimonogatari E06 - Koyomi Tree
Encoded date                             : UTC 2018-04-25 00:46:13
Writing application                      : mkvmerge v22.0.0 ('At The End Of The World') 64-bit
Writing library                          : libebml v1.3.5 + libmatroska v1.4.8
Attachments                              : AdobeFanHeitiStd-Bold.otf / AdobeGurmukhi-Bold.otf / AdobeGurmukhi-Regular.otf / arial.ttf / CENTURY.TTF / DKKitsuneTail.ttf / HelveticaNeue-Med.ttf / MUSICNET.ttf / MyriadPro-It.otf / MyriadPro-Regular.otf

Video
ID                                       : 1
Format                                   : AVC
Format/Info                              : Advanced Video Codec
Format profile                           : High 10@L5.2
Format settings, CABAC                   : Yes
Format settings, ReFrames                : 16 frames
Codec ID                                 : V_MPEG4/ISO/AVC
Duration                                 : 14 min 58 s
Bit rate                                 : 7 140 kb/s
Width                                    : 1 920 pixels
Height                                   : 1 080 pixels
Display aspect ratio                     : 16:9
Frame rate mode                          : Constant
Frame rate                               : 23.976 (24000/1001) FPS
Color space                              : YUV
Chroma subsampling                       : 4:2:0
Bit depth                                : 10 bits
Scan type                                : Progressive
Bits/(Pixel*Frame)                       : 0.144
Stream size                              : 765 MiB (83%)
Title                                    : Hi10 1080p h.264
Writing library                          : x264 core 148
Encoding settings                        : cabac=1 / ref=16 / deblock=1:1:1 / analyse=0x3:0x133 / me=umh / subme=10 / psy=1 / psy_rd=0.40:0.00 / mixed_ref=1 / me_range=24 / chroma_me=1 / trellis=2 / 8x8dct=1 / cqm=0 / deadzone=21,11 / fast_pskip=1 / chroma_qp_offset=-2 / threads=9 / lookahead_threads=2 / sliced_threads=0 / nr=0 / decimate=1 / interlaced=0 / bluray_compat=0 / constrained_intra=0 / bframes=10 / b_pyramid=2 / b_adapt=2 / b_bias=0 / direct=3 / weightb=1 / open_gop=0 / weightp=2 / keyint=240 / keyint_min=24 / scenecut=40 / intra_refresh=0 / rc_lookahead=60 / rc=crf / mbtree=1 / crf=14.0 / qcomp=0.60 / qpmin=0 / qpmax=81 / qpstep=4 / vbv_maxrate=720000 / vbv_bufsize=720000 / crf_max=0.0 / nal_hrd=none / filler=0 / ip_ratio=1.40 / aq=1:0.60
Language                                 : Japanese
Default                                  : Yes
Forced                                   : No
Color range                              : Limited
Color primaries                          : BT.709
Transfer characteristics                 : BT.709
Matrix coefficients                      : BT.709

Audio
ID                                       : 2
Format                                   : FLAC
Format/Info                              : Free Lossless Audio Codec
Codec ID                                 : A_FLAC
Duration                                 : 14 min 58 s
Bit rate mode                            : Variable
Bit rate                                 : 1 400 kb/s
Channel(s)                               : 2 channels
Channel positions                        : Front: L R
Sampling rate                            : 48.0 kHz
Frame rate                               : 11.719 FPS (4096 spf)
Bit depth                                : 24 bits
Stream size                              : 150 MiB (16%)
Title                                    : 2.0 FLAC
Writing library                          : libFLAC 1.3.1 (UTC 2014-11-25)
Language                                 : Japanese
Default                                  : Yes
Forced                                   : No

Text
ID                                       : 3
Format                                   : ASS
Codec ID                                 : S_TEXT/ASS
Codec ID/Info                            : Advanced Sub Station Alpha
Duration                                 : 14 min 37 s
Bit rate                                 : 174 b/s
Count of elements                        : 281
Compression mode                         : Lossless
Stream size                              : 18.7 KiB (0%)
Language                                 : English
Default                                  : Yes
Forced                                   : No

Menu
00:00:00.000                             : en:OP
00:01:30.089                             : en:Episode
00:13:28.098                             : en:ED

Other Files in this Torrent
Koyomimonogatari E06 - Koyomi Tree.mkv
beta
Anime DDL+NZB mirror
Current Time: 19/07/2024 16:05



About/FAQs

Discord