File Size996.7 MB (1,045,079,392 bytes)
DownloadClickNUpload | DownloadGG | KrakenFiles
MultiUp: Part1
  • BdUpload
  • DownAce
  • Fichier
  • FileCloud
  • Filerio
  • FilesCdn
  • IndiShare
  • Kbagi
  • Turbobit
  • UpToBox
  • Uppit
, Part2
  • BdUpload
  • DownAce
  • Fichier
  • FileCloud
  • Filerio
  • FilesCdn
  • IndiShare
  • Kbagi
  • Turbobit
  • UpToBox
  • Uppit

ZippyShare: Part1, Part2
HashesCRC32: 615C3FFF, MD5: ABEB14A2736660505533CBE10B7581EE, SHA1: 6A666A595C1F84BAF93B64D144AEB3DA684E1572, SHA256: D75A648978E9A3DF88A92B78D90CFD6E0EE359542A2FE9F729878B2673F24EAD, ED2K: E07550C2FB951169EB50F1A4C797621C
Screenshots
screenshotscreenshotscreenshotscreenshotscreenshot
SubtitlesAll Attachments | Signs & Songs [eng, ASS], Dialogue [eng, ASS]
Additional Info
General
Unique ID                                : 137928775428207063463102939889345157318 (0x67C41DAA3EC14F9000A667D707DED8C6)
Complete name                            : I'm Quitting Heroing - S01E13v2 [BD 1080p x264 FLAC] [Dual-Audio].mkv
Format                                   : Matroska
Format version                           : Version 4
File size                                : 997 MiB
Duration                                 : 23 min 15 s
Overall bit rate mode                    : Variable
Overall bit rate                         : 5 993 kb/s
Encoded date                             : UTC 2023-01-23 09:59:43
Writing application                      : mkvmerge v58.0.0 ('Supper's Ready') 64-bit
Writing library                          : libebml v1.4.2 + libmatroska v1.6.4
Attachments                              : AlteHaasGroteskBold.ttf / A-OTF Ryumin Pr6 EB-KL.otf / A-OTF Ryumin Pr6 H-KL.otf / Arial Bold_0.ttf / Barmeno Extra Bold.ttf / Dimbo Regular.ttf / HighVoltage Rough.ttf / IMFellEnglish-Regular.ttf / LibreBaskerville-Bold.ttf / LibreBaskerville-Regular.ttf / LTWave-Bold.ttf / Marcellus-Regular.ttf / Roboto-Medium.ttf / Rosario-Bold.otf / Rosario-BoldItalic.otf / Rubik-Medium.ttf / Typography Times Italic.ttf

Video
ID                                       : 1
Format                                   : AVC
Format/Info                              : Advanced Video Codec
Format profile                           : High@L4
Format settings                          : CABAC / 4 Ref Frames
Format settings, CABAC                   : Yes
Format settings, Reference frames        : 4 frames
Codec ID                                 : V_MPEG4/ISO/AVC
Duration                                 : 23 min 14 s
Bit rate                                 : 3 894 kb/s
Width                                    : 1 920 pixels
Height                                   : 1 080 pixels
Display aspect ratio                     : 16:9
Frame rate mode                          : Constant
Frame rate                               : 23.976 FPS
Color space                              : YUV
Chroma subsampling                       : 4:2:0
Bit depth                                : 8 bits
Scan type                                : Progressive
Bits/(Pixel*Frame)                       : 0.078
Stream size                              : 647 MiB (65%)
Writing library                          : x264 core 164
Encoding settings                        : opencl=1 / cabac=1 / ref=4 / deblock=1:-2:-2 / analyse=0x3:0x113 / me=umh / subme=9 / psy=1 / psy_rd=0.70:0.00 / mixed_ref=0 / me_range=32 / chroma_me=1 / trellis=2 / 8x8dct=1 / cqm=0 / deadzone=21,11 / fast_pskip=1 / chroma_qp_offset=-2 / threads=8 / lookahead_threads=1 / sliced_threads=0 / nr=0 / decimate=1 / interlaced=0 / bluray_compat=0 / constrained_intra=0 / bframes=9 / b_pyramid=2 / b_adapt=2 / b_bias=0 / direct=3 / weightb=1 / open_gop=0 / weightp=2 / keyint=250 / keyint_min=23 / scenecut=40 / intra_refresh=0 / rc_lookahead=40 / rc=crf / mbtree=1 / crf=16.0 / qcomp=0.70 / qpmin=10 / qpmax=20 / qpstep=4 / ip_ratio=1.40 / aq=1:1.00
Language                                 : Japanese
Default                                  : Yes
Forced                                   : No

Audio #1
ID                                       : 2
Format                                   : FLAC
Format/Info                              : Free Lossless Audio Codec
Codec ID                                 : A_FLAC
Duration                                 : 23 min 15 s
Bit rate mode                            : Variable
Bit rate                                 : 705 kb/s
Channel(s)                               : 2 channels
Channel layout                           : L R
Sampling rate                            : 48.0 kHz
Frame rate                               : 10.413 FPS (4610 SPF)
Bit depth                                : 24 bits
Compression mode                         : Lossless
Stream size                              : 117 MiB (12%)
Title                                    : ENG
Writing library                          : Lavf59.35.100
Language                                 : English
Default                                  : Yes
Forced                                   : No

Audio #2
ID                                       : 3
Format                                   : FLAC
Format/Info                              : Free Lossless Audio Codec
Codec ID                                 : A_FLAC
Duration                                 : 23 min 14 s
Bit rate mode                            : Variable
Bit rate                                 : 1 352 kb/s
Channel(s)                               : 2 channels
Channel layout                           : L R
Sampling rate                            : 48.0 kHz
Frame rate                               : 10.417 FPS (4608 SPF)
Bit depth                                : 24 bits
Compression mode                         : Lossless
Stream size                              : 225 MiB (23%)
Title                                    : JPN
Writing library                          : Lavf58.76.100
Language                                 : Japanese
Default                                  : No
Forced                                   : No

Text #1
ID                                       : 4
Format                                   : ASS
Codec ID                                 : S_TEXT/ASS
Codec ID/Info                            : Advanced Sub Station Alpha
Duration                                 : 23 min 2 s
Bit rate                                 : 10.8 kb/s
Count of elements                        : 17777
Compression mode                         : Lossless
Stream size                              : 1.78 MiB (0%)
Title                                    : Signs & Songs
Language                                 : English
Default                                  : Yes
Forced                                   : Yes

Text #2
ID                                       : 5
Format                                   : ASS
Codec ID                                 : S_TEXT/ASS
Codec ID/Info                            : Advanced Sub Station Alpha
Duration                                 : 23 min 2 s
Bit rate                                 : 10.9 kb/s
Count of elements                        : 18093
Compression mode                         : Lossless
Stream size                              : 1.80 MiB (0%)
Title                                    : Dialogue
Language                                 : English
Default                                  : No
Forced                                   : No

Menu
00:00:00.000                             : :Opening
00:01:30.007                             : :Yuusha, Yamemasu 13
00:14:08.847                             : :Part 2
00:21:53.934                             : :Ending

Other Files in this Torrent
I'm Quitting Heroing - S01E13v2 [BD 1080p x264 FLAC] [Dual-Audio].mkv
beta
Anime DDL+NZB mirror
Current Time: 18/07/2024 04:05



About/FAQs

Discord